  0
SECTION
  2
HEADER
  9
$ACADVER
  1
AC1018
  9
$ACADMAINTVER
 70
    76
  9
$DWGCODEPAGE
  3
ANSI_936
  9
$INSBASE
 10
0.0
 20
0.0
 30
0.0
  9
$EXTMIN
 10
-459.1496625330143
 20
-279.5340115767201
 30
0.0
  9
$EXTMAX
 10
434.6868063075646
 20
236.8712565664028
 30
0.0
  9
$LIMMIN
 10
-0.5
 20
-0.5
  9
$LIMMAX
 10
5.0
 20
5.0
  9
$ORTHOMODE
 70
     0
  9
$REGENMODE
 70
     1
  9
$FILLMODE
 70
     1
  9
$QTEXTMODE
 70
     0
  9
$MIRRTEXT
 70
     1
  9
$LTSCALE
 40
1.0
  9
$ATTMODE
 70
     1
  9
$TEXTSIZE
 40
0.2
  9
$TRACEWID
 40
0.05
  9
$TEXTSTYLE
  7
Standard
  9
$CLAYER
  8
0
  9
$CELTYPE
  6
Continuous
  9
$CECOLOR
 62
   256
  9
$CELTSCALE
 40
1.0
  9
$DISPSILH
 70
     0
  9
$DIMSCALE
 40
1.0
  9
$DIMASZ
 40
0.18
  9
$DIMEXO
 40
0.0625
  9
$DIMDLI
 40
0.38
  9
$DIMRND
 40
0.0
  9
$DIMDLE
 40
0.0
  9
$DIMEXE
 40
0.18
  9
$DIMTP
 40
0.0
  9
$DIMTM
 40
0.0
  9
$DIMTXT
 40
5.0
  9
$DIMCEN
 40
0.09
  9
$DIMTSZ
 40
0.0
  9
$DIMTOL
 70
     0
  9
$DIMLIM
 70
     0
  9
$DIMTIH
 70
     0
  9
$DIMTOH
 70
     1
  9
$DIMSE1
 70
     0
  9
$DIMSE2
 70
     0
  9
$DIMTAD
 70
     0
  9
$DIMZIN
 70
     0
  9
$DIMBLK
  1

  9
$DIMASO
 70
     1
  9
$DIMSHO
 70
     1
  9
$DIMPOST
  1
mm
  9
$DIMAPOST
  1
"
  9
$DIMALT
 70
     1
  9
$DIMALTD
 70
     4
  9
$DIMALTF
 40
0.03937
  9
$DIMLFAC
 40
1.0
  9
$DIMTOFL
 70
     0
  9
$DIMTVP
 40
0.0
  9
$DIMTIX
 70
     0
  9
$DIMSOXD
 70
     0
  9
$DIMSAH
 70
     0
  9
$DIMBLK1
  1

  9
$DIMBLK2
  1

  9
$DIMSTYLE
  2
Standard
  9
$DIMCLRD
 70
     0
  9
$DIMCLRE
 70
     0
  9
$DIMCLRT
 70
     0
  9
$DIMTFAC
 40
1.0
  9
$DIMGAP
 40
0.09
  9
$DIMJUST
 70
     0
  9
$DIMSD1
 70
     0
  9
$DIMSD2
 70
     0
  9
$DIMTOLJ
 70
     1
  9
$DIMTZIN
 70
     0
  9
$DIMALTZ
 70
     0
  9
$DIMALTTZ
 70
     0
  9
$DIMUPT
 70
     0
  9
$DIMDEC
 70
     2
  9
$DIMTDEC
 70
     2
  9
$DIMALTU
 70
     2
  9
$DIMALTTD
 70
     4
  9
$DIMTXSTY
  7
Standard
  9
$DIMAUNIT
 70
     0
  9
$DIMADEC
 70
     0
  9
$DIMALTRND
 40
0.0
  9
$DIMAZIN
 70
     0
  9
$DIMDSEP
 70
     0
  9
$DIMATFIT
 70
     3
  9
$DIMFRAC
 70
     0
  9
$DIMLDRBLK
  1

  9
$DIMLUNIT
 70
     2
  9
$DIMLWD
 70
     0
  9
$DIMLWE
 70
     0
  9
$DIMTMOVE
 70
     0
  9
$LUNITS
 70
     2
  9
$LUPREC
 70
     4
  9
$SKETCHINC
 40
0.1
  9
$FILLETRAD
 40
0.0
  9
$AUNITS
 70
     0
  9
$AUPREC
 70
     0
  9
$MENU
  1
acad
  9
$ELEVATION
 40
0.0
  9
$PELEVATION
 40
0.0
  9
$THICKNESS
 40
0.0
  9
$LIMCHECK
 70
     0
  9
$CHAMFERA
 40
0.0
  9
$CHAMFERB
 40
0.0
  9
$CHAMFERC
 40
0.0
  9
$CHAMFERD
 40
0.0
  9
$SKPOLY
 70
     0
  9
$TDCREATE
 40
2454489.357029259
  9
$TDUCREATE
 40
2454489.023695926
  9
$TDUPDATE
 40
2454748.611974827
  9
$TDUUPDATE
 40
2454748.278641493
  9
$TDINDWG
 40
0.0037415046
  9
$TDUSRTIMER
 40
0.0037415046
  9
$USRTIMER
 70
     1
  9
$ANGBASE
 50
0.0
  9
$ANGDIR
 70
     0
  9
$PDMODE
 70
     0
  9
$PDSIZE
 40
0.0
  9
$PLINEWID
 40
0.0
  9
$SPLFRAME
 70
     0
  9
$SPLINETYPE
 70
     6
  9
$SPLINESEGS
 70
     8
  9
$HANDSEED
  5
102
  9
$SURFTAB1
 70
     6
  9
$SURFTAB2
 70
     6
  9
$SURFTYPE
 70
     6
  9
$SURFU
 70
     6
  9
$SURFV
 70
     6
  9
$UCSBASE
  2

  9
$UCSNAME
  2

  9
$UCSORG
 10
0.0
 20
0.0
 30
0.0
  9
$UCSXDIR
 10
1.0
 20
0.0
 30
0.0
  9
$UCSYDIR
 10
0.0
 20
1.0
 30
0.0
  9
$UCSORTHOREF
  2

  9
$UCSORTHOVIEW
 70
     0
  9
$UCSORGTOP
 10
0.0
 20
0.0
 30
0.0
  9
$UCSORGBOTTOM
 10
0.0
 20
0.0
 30
0.0
  9
$UCSORGLEFT
 10
0.0
 20
0.0
 30
0.0
  9
$UCSORGRIGHT
 10
0.0
 20
0.0
 30
0.0
  9
$UCSORGFRONT
 10
0.0
 20
0.0
 30
0.0
  9
$UCSORGBACK
 10
0.0
 20
0.0
 30
0.0
  9
$PUCSBASE
  2

  9
$PUCSNAME
  2

  9
$PUCSORG
 10
0.0
 20
0.0
 30
0.0
  9
$PUCSXDIR
 10
1.0
 20
0.0
 30
0.0
  9
$PUCSYDIR
 10
0.0
 20
1.0
 30
0.0
  9
$PUCSORTHOREF
  2

  9
$PUCSORTHOVIEW
 70
     0
  9
$PUCSORGTOP
 10
0.0
 20
0.0
 30
0.0
  9
$PUCSORGBOTTOM
 10
0.0
 20
0.0
 30
0.0
  9
$PUCSORGLEFT
 10
0.0
 20
0.0
 30
0.0
  9
$PUCSORGRIGHT
 10
0.0
 20
0.0
 30
0.0
  9
$PUCSORGFRONT
 10
0.0
 20
0.0
 30
0.0
  9
$PUCSORGBACK
 10
0.0
 20
0.0
 30
0.0
  9
$USERI1
 70
     0
  9
$USERI2
 70
     0
  9
$USERI3
 70
     0
  9
$USERI4
 70
     0
  9
$USERI5
 70
     0
  9
$USERR1
 40
0.0
  9
$USERR2
 40
0.0
  9
$USERR3
 40
0.0
  9
$USERR4
 40
0.0
  9
$USERR5
 40
0.0
  9
$WORLDVIEW
 70
     1
  9
$SHADEDGE
 70
     3
  9
$SHADEDIF
 70
    70
  9
$TILEMODE
 70
     1
  9
$MAXACTVP
 70
    16
  9
$PINSBASE
 10
0.0
 20
0.0
 30
0.0
  9
$PLIMCHECK
 70
     0
  9
$PEXTMIN
 10
1.000000000000000E+20
 20
1.000000000000000E+20
 30
1.000000000000000E+20
  9
$PEXTMAX
 10
-1.000000000000000E+20
 20
-1.000000000000000E+20
 30
-1.000000000000000E+20
  9
$PLIMMIN
 10
-0.6249999981226883
 20
-0.6662496506698488
  9
$PLIMMAX
 10
11.0666662520311
 20
7.600416791720652
  9
$UNITMODE
 70
     0
  9
$VISRETAIN
 70
     0
  9
$PLINEGEN
 70
     1
  9
$PSLTSCALE
 70
     0
  9
$TREEDEPTH
 70
  3020
  9
$CMLSTYLE
  2
Standard
  9
$CMLJUST
 70
     0
  9
$CMLSCALE
 40
1.0
  9
$PROXYGRAPHICS
 70
     0
  9
$MEASUREMENT
 70
     0
  9
$CELWEIGHT
370
     0
  9
$ENDCAPS
280
     0
  9
$JOINSTYLE
280
     0
  9
$LWDISPLAY
290
     0
  9
$INSUNITS
 70
     0
  9
$HYPERLINKBASE
  1

  9
$STYLESHEET
  1

  9
$XEDIT
290
     1
  9
$CEPSNTYPE
380
     0
  9
$PSTYLEMODE
290
     1
  9
$FINGERPRINTGUID
  2

  9
$VERSIONGUID
  2
{AD8B8646-44B8-465B-9F47-6BDDEC3A3649}
  9
$EXTNAMES
290
     1
  9
$PSVPSCALE
 40
0.0
  9
$OLESTARTUP
290
     0
  9
$SORTENTS
280
   127
  9
$INDEXCTL
280
     0
  9
$HIDETEXT
280
     0
  9
$XCLIPFRAME
290
     0
  9
$HALOGAP
280
     0
  9
$OBSCOLOR
 70
   257
  9
$OBSLTYPE
280
     0
  9
$INTERSECTIONDISPLAY
280
     0
  9
$INTERSECTIONCOLOR
 70
   257
  9
$DIMASSOC
280
     1
  9
$PROJECTNAME
  1

  0
ENDSEC
  0
SECTION
  2
CLASSES
  0
CLASS
  1
IMAGE
  2
AcDbRasterImage
  3
ISM
 90
      127
 91
        0
280
     0
281
     1
  0
CLASS
  1
DICTIONARYVAR
  2
AcDbDictionaryVar
  3
ObjectDBX Classes
 90
        0
 91
        1
280
     0
281
     0
  0
CLASS
  1
RASTERVARIABLES
  2
AcDbRasterVariables
  3
ISM
 90
        0
 91
        0
280
     0
281
     0
  0
CLASS
  1
IMAGEDEF
  2
AcDbRasterImageDef
  3
ISM
 90
        0
 91
        0
280
     0
281
     0
  0
CLASS
  1
IMAGEDEF_REACTOR
  2
AcDbRasterImageDefReactor
  3
ISM
 90
        1
 91
        0
280
     0
281
     0
  0
CLASS
  1
IDBUFFER
  2
AcDbIdBuffer
  3
ObjectDBX Classes
 90
        0
 91
        0
280
     0
281
     0
  0
CLASS
  1
SPATIAL_FILTER
  2
AcDbSpatialFilter
  3
ObjectDBX Classes
 90
        0
 91
        0
280
     0
281
     0
  0
CLASS
  1
SORTENTSTABLE
  2
AcDbSortentsTable
  3
ObjectDBX Classes
 90
        0
 91
        0
280
     0
281
     0
  0
CLASS
  1
LAYER_INDEX
  2
AcDbLayerIndex
  3
ObjectDBX Classes
 90
        0
 91
        0
280
     0
281
     0
  0
CLASS
  1
SPATIAL_INDEX
  2
AcDbSpatialIndex
  3
ObjectDBX Classes
 90
        0
 91
        0
280
     0
281
     0
  0
CLASS
  1
OBJECT_PTR
  2
CAseDLPNTableRecord
  3
ASE-LPNTableRecord
 90
        1
 91
        0
280
     0
281
     0
  0
CLASS
  1
PLOTSETTINGS
  2
AcDbPlotSettings
  3
ObjectDBX Classes
 90
        0
 91
        0
280
     0
281
     0
  0
CLASS
  1
ACDBDICTIONARYWDFLT
  2
AcDbDictionaryWithDefault
  3
ObjectDBX Classes
 90
        0
 91
        1
280
     0
281
     0
  0
CLASS
  1
WIPEOUT
  2
AcDbWipeout
  3
"WipeOut|Product Desc: Object Enabler for WipeOut entity^I^I^I^I^I^I|Company: Autodesk, Inc.^I^I^I^I^I^I|WEB Address: www.autodesk.com"
 90
      127
 91
        0
280
     0
281
     1
  0
CLASS
  1
WIPEOUTVARIABLES
  2
AcDbWipeoutVariables
  3
"WipeOut|Product Desc:     WipeOut Dbx Application|Company:          Autodesk, Inc.|WEB Address:      www.autodesk.com"
 90
        0
 91
        1
280
     0
281
     0
  0
CLASS
  1
RTEXT
  2
RText
  3
RText|AutoCAD Express Tool|expresstools@autodesk.com
 90
     1023
 91
        0
280
     0
281
     1
  0
CLASS
  1
ARCALIGNEDTEXT
  2
AcDbArcAlignedText
  3
ATEXT|AutoCAD Express Tool|expresstools@autodesk.com
 90
        0
 91
        0
280
     0
281
     1
  0
CLASS
  1
TABLESTYLE
  2
AcDbTableStyle
  3
ObjectDBX Classes
 90
     2047
 91
        1
280
     0
281
     0
  0
ENDSEC
  0
SECTION
  2
TABLES
  0
TABLE
  2
VPORT
  5
7
330
0
100
AcDbSymbolTable
 70
    17
  0
VPORT
  5
4C
330
7
100
AcDbSymbolTableRecord
100
AcDbViewportTableRecord
  2
L1
 70
     0
 10
0.0
 20
0.0
 11
1.0
 21
1.0
 12
0.0
 22
0.0
 13
0.0
 23
0.0
 14
1.0
 24
1.0
 15
0.0
 25
0.0
 16
0.0
 26
0.0
 36
1.0
 17
0.0
 27
0.0
 37
0.0
 40
176.5625
 41
0.688564
 42
50.0
 43
566.2542684027864
 44
-566.2542684027864
 50
0.0
 51
0.0
 71
    16
 72
   100
 73
     1
 74
     1
 75
     0
 76
     0
 77
     0
 78
     0
281
     0
 65
     0
110
0.0
120
0.0
130
0.0
111
1.0
121
0.0
131
0.0
112
0.0
122
1.0
132
0.0
 79
     0
146
0.0
  0
VPORT
  5
4D
330
7
100
AcDbSymbolTableRecord
100
AcDbViewportTableRecord
  2
L2
 70
     0
 10
0.0
 20
0.0
 11
0.5
 21
1.0
 12
0.0
 22
0.0
 13
0.0
 23
0.0
 14
1.0
 24
1.0
 15
0.0
 25
0.0
 16
0.0
 26
-1.0
 36
0.0
 17
0.0
 27
0.0
 37
0.0
 40
1132.508536805573
 41
0.688564
 42
50.0
 43
583.681281086369
 44
-583.681281086369
 50
0.0
 51
0.0
 71
    16
 72
   100
 73
     1
 74
     1
 75
     0
 76
     0
 77
     0
 78
     0
281
     0
 65
     0
110
0.0
120
0.0
130
0.0
111
1.0
121
0.0
131
0.0
112
0.0
122
1.0
132
0.0
 79
     0
146
0.0
  0
VPORT
  5
4E
330
7
100
AcDbSymbolTableRecord
100
AcDbViewportTableRecord
  2
L2
 70
     0
 10
0.5
 20
0.0
 11
1.0
 21
1.0
 12
0.0
 22
0.0
 13
0.0
 23
0.0
 14
1.0
 24
1.0
 15
0.0
 25
0.0
 16
1.0
 26
0.0
 36
0.0
 17
0.0
 27
0.0
 37
0.0
 40
1132.508536805573
 41
0.688564
 42
50.0
 43
573.0946480171817
 44
-573.0946480171817
 50
0.0
 51
0.0
 71
    16
 72
   100
 73
     1
 74
     1
 75
     0
 76
     0
 77
     0
 78
     0
281
     0
 65
     0
110
0.0
120
0.0
130
0.0
111
1.0
121
0.0
131
0.0
112
0.0
122
1.0
132
0.0
 79
     0
146
0.0
  0
VPORT
  5
4F
330
7
100
AcDbSymbolTableRecord
100
AcDbViewportTableRecord
  2
L3
 70
     0
 10
0.0
 20
0.5
 11
1.0
 21
1.0
 12
0.0
 22
0.0
 13
0.0
 23
0.0
 14
1.0
 24
1.0
 15
0.0
 25
0.0
 16
0.0
 26
0.0
 36
1.0
 17
0.0
 27
0.0
 37
0.0
 40
176.5625
 41
0.688564
 42
50.0
 43
566.2542684027864
 44
-566.2542684027864
 50
0.0
 51
0.0
 71
    16
 72
   100
 73
     1
 74
     1
 75
     0
 76
     0
 77
     0
 78
     0
281
     0
 65
     0
110
0.0
120
0.0
130
0.0
111
1.0
121
0.0
131
0.0
112
0.0
122
1.0
132
0.0
 79
     0
146
0.0
  0
VPORT
  5
50
330
7
100
AcDbSymbolTableRecord
100
AcDbViewportTableRecord
  2
L3
 70
     0
 10
0.0
 20
0.0
 11
1.0
 21
0.5
 12
0.0
 22
0.0
 13
0.0
 23
0.0
 14
1.0
 24
1.0
 15
0.0
 25
0.0
 16
0.0
 26
-1.0
 36
0.0
 17
0.0
 27
0.0
 37
0.0
 40
1132.508536805573
 41
0.688564
 42
50.0
 43
583.681281086369
 44
-583.681281086369
 50
0.0
 51
0.0
 71
    16
 72
   100
 73
     1
 74
     1
 75
     0
 76
     0
 77
     0
 78
     0
281
     0
 65
     0
110
0.0
120
0.0
130
0.0
111
1.0
121
0.0
131
0.0
112
0.0
122
1.0
132
0.0
 79
     0
146
0.0
  0
VPORT
  5
51
330
7
100
AcDbSymbolTableRecord
100
AcDbViewportTableRecord
  2
L4
 70
     0
 10
0.0
 20
0.5
 11
0.5
 21
1.0
 12
0.0
 22
0.0
 13
0.0
 23
0.0
 14
1.0
 24
1.0
 15
0.0
 25
0.0
 16
0.0
 26
0.0
 36
1.0
 17
0.0
 27
0.0
 37
0.0
 40
176.5625
 41
0.688564
 42
50.0
 43
566.2542684027864
 44
-566.2542684027864
 50
0.0
 51
0.0
 71
    16
 72
   100
 73
     1
 74
     1
 75
     0
 76
     0
 77
     0
 78
     0
281
     0
 65
     0
110
0.0
120
0.0
130
0.0
111
1.0
121
0.0
131
0.0
112
0.0
122
1.0
132
0.0
 79
     0
146
0.0
  0
VPORT
  5
52
330
7
100
AcDbSymbolTableRecord
100
AcDbViewportTableRecord
  2
L4
 70
     0
 10
0.0
 20
0.0
 11
0.5
 21
0.5
 12
0.0
 22
0.0
 13
0.0
 23
0.0
 14
1.0
 24
1.0
 15
0.0
 25
0.0
 16
0.0
 26
-1.0
 36
0.0
 17
0.0
 27
0.0
 37
0.0
 40
1132.508536805573
 41
0.688564
 42
50.0
 43
583.681281086369
 44
-583.681281086369
 50
0.0
 51
0.0
 71
    16
 72
   100
 73
     1
 74
     1
 75
     0
 76
     0
 77
     0
 78
     0
281
     0
 65
     0
110
0.0
120
0.0
130
0.0
111
1.0
121
0.0
131
0.0
112
0.0
122
1.0
132
0.0
 79
     0
146
0.0
  0
VPORT
  5
53
330
7
100
AcDbSymbolTableRecord
100
AcDbViewportTableRecord
  2
L4
 70
     0
 10
0.5
 20
0.0
 11
1.0
 21
0.5
 12
0.0
 22
0.0
 13
0.0
 23
0.0
 14
1.0
 24
1.0
 15
0.0
 25
0.0
 16
1.0
 26
0.0
 36
0.0
 17
0.0
 27
0.0
 37
0.0
 40
1132.508536805573
 41
0.688564
 42
50.0
 43
573.0946480171817
 44
-573.0946480171817
 50
0.0
 51
0.0
 71
    16
 72
   100
 73
     1
 74
     1
 75
     0
 76
     0
 77
     0
 78
     0
281
     0
 65
     0
110
0.0
120
0.0
130
0.0
111
1.0
121
0.0
131
0.0
112
0.0
122
1.0
132
0.0
 79
     0
146
0.0
  0
VPORT
  5
54
330
7
100
AcDbSymbolTableRecord
100
AcDbViewportTableRecord
  2
L4
 70
     0
 10
0.5
 20
0.5
 11
1.0
 21
1.0
 12
0.0
 22
0.0
 13
0.0
 23
0.0
 14
1.0
 24
1.0
 15
0.0
 25
0.0
 16
0.5773502691896259
 26
-0.5773502691896259
 36
0.5773502691896259
 17
0.0
 27
0.0
 37
0.0
 40
1112.355984195819
 41
0.688564
 42
50.0
 43
579.4376874186676
 44
-579.4376874186676
 50
0.0
 51
0.0
 71
    16
 72
   100
 73
     1
 74
     1
 75
     0
 76
     0
 77
     0
 78
     0
281
     0
 65
     0
110
0.0
120
0.0
130
0.0
111
1.0
121
0.0
131
0.0
112
0.0
122
1.0
132
0.0
 79
     0
146
0.0
  0
VPORT
  5
55
330
7
100
AcDbSymbolTableRecord
100
AcDbViewportTableRecord
  2
L6
 70
     0
 10
0.0
 20
0.5
 11
0.3333333333333334
 21
1.0
 12
0.0
 22
0.0
 13
0.0
 23
0.0
 14
1.0
 24
1.0
 15
0.0
 25
0.0
 16
0.7188730927569434
 26
-0.5850486126764432
 36
0.3754192287502549
 17
0.0
 27
0.0
 37
0.0
 40
1173.951112383371
 41
0.688564
 42
50.0
 43
607.8240479537008
 44
-607.8240479537008
 50
0.0
 51
0.0
 71
    16
 72
   100
 73
     1
 74
     1
 75
     0
 76
     0
 77
     0
 78
     0
281
     0
 65
     0
110
0.0
120
0.0
130
0.0
111
1.0
121
0.0
131
0.0
112
0.0
122
1.0
132
0.0
 79
     0
146
0.0
  0
VPORT
  5
56
330
7
100
AcDbSymbolTableRecord
100
AcDbViewportTableRecord
  2
L6
 70
     0
 10
0.0
 20
0.0
 11
0.3333333333333334
 21
0.5
 12
0.0
 22
0.0
 13
0.0
 23
0.0
 14
1.0
 24
1.0
 15
0.0
 25
0.0
 16
-1.0
 26
0.0
 36
0.0
 17
0.0
 27
0.0
 37
0.0
 40
1132.508536805573
 41
0.688564
 42
50.0
 43
573.0946480171817
 44
-573.0946480171817
 50
0.0
 51
0.0
 71
    16
 72
   100
 73
     1
 74
     1
 75
     0
 76
     0
 77
     0
 78
     0
281
     0
 65
     0
110
0.0
120
0.0
130
0.0
111
1.0
121
0.0
131
0.0
112
0.0
122
1.0
132
0.0
 79
     0
146
0.0
  0
VPORT
  5
57
330
7
100
AcDbSymbolTableRecord
100
AcDbViewportTableRecord
  2
L6
 70
     0
 10
0.3333333333333334
 20
0.5
 11
0.6666666666666666
 21
1.0
 12
0.0
 22
0.0
 13
0.0
 23
0.0
 14
1.0
 24
1.0
 15
0.0
 25
0.0
 16
0.0
 26
0.0
 36
1.0
 17
0.0
 27
0.0
 37
0.0
 40
176.5625
 41
0.688564
 42
50.0
 43
566.2542684027864
 44
-566.2542684027864
 50
0.0
 51
0.0
 71
    16
 72
   100
 73
     1
 74
     1
 75
     0
 76
     0
 77
     0
 78
     0
281
     0
 65
     0
110
0.0
120
0.0
130
0.0
111
1.0
121
0.0
131
0.0
112
0.0
122
1.0
132
0.0
 79
     0
146
0.0
  0
VPORT
  5
58
330
7
100
AcDbSymbolTableRecord
100
AcDbViewportTableRecord
  2
L6
 70
     0
 10
0.3333333333333334
 20
0.0
 11
0.6666666666666666
 21
0.5
 12
0.0
 22
0.0
 13
0.0
 23
0.0
 14
1.0
 24
1.0
 15
0.0
 25
0.0
 16
0.0
 26
-1.0
 36
0.0
 17
0.0
 27
0.0
 37
0.0
 40
1132.508536805573
 41
0.688564
 42
50.0
 43
583.681281086369
 44
-583.681281086369
 50
0.0
 51
0.0
 71
    16
 72
   100
 73
     1
 74
     1
 75
     0
 76
     0
 77
     0
 78
     0
281
     0
 65
     0
110
0.0
120
0.0
130
0.0
111
1.0
121
0.0
131
0.0
112
0.0
122
1.0
132
0.0
 79
     0
146
0.0
  0
VPORT
  5
59
330
7
100
AcDbSymbolTableRecord
100
AcDbViewportTableRecord
  2
L6
 70
     0
 10
0.6666666666666666
 20
0.5
 11
1.0
 21
1.0
 12
0.0
 22
0.0
 13
0.0
 23
0.0
 14
1.0
 24
1.0
 15
0.0
 25
0.0
 16
0.5773502691896259
 26
-0.5773502691896259
 36
0.5773502691896259
 17
0.0
 27
0.0
 37
0.0
 40
1112.355984195819
 41
0.688564
 42
50.0
 43
579.4376874186676
 44
-579.4376874186676
 50
0.0
 51
0.0
 71
    16
 72
   100
 73
     1
 74
     1
 75
     0
 76
     0
 77
     0
 78
     0
281
     0
 65
     0
110
0.0
120
0.0
130
0.0
111
1.0
121
0.0
131
0.0
112
0.0
122
1.0
132
0.0
 79
     0
146
0.0
  0
VPORT
  5
5A
330
7
100
AcDbSymbolTableRecord
100
AcDbViewportTableRecord
  2
L6
 70
     0
 10
0.6666666666666666
 20
0.0
 11
1.0
 21
0.5
 12
0.0
 22
0.0
 13
0.0
 23
0.0
 14
1.0
 24
1.0
 15
0.0
 25
0.0
 16
1.0
 26
0.0
 36
0.0
 17
0.0
 27
0.0
 37
0.0
 40
1132.508536805573
 41
0.688564
 42
50.0
 43
573.0946480171817
 44
-573.0946480171817
 50
0.0
 51
0.0
 71
    16
 72
   100
 73
     1
 74
     1
 75
     0
 76
     0
 77
     0
 78
     0
281
     0
 65
     0
110
0.0
120
0.0
130
0.0
111
1.0
121
0.0
131
0.0
112
0.0
122
1.0
132
0.0
 79
     0
146
0.0
  0
VPORT
  5
101
330
7
100
AcDbSymbolTableRecord
100
AcDbViewportTableRecord
  2
*Active
 70
     0
 10
0.0
 20
0.0
 11
1.0
 21
1.0
 12
93.14020097485263
 22
-1.638929088362488
 13
0.0
 23
0.0
 14
1.0
 24
1.0
 15
0.0
 25
0.0
 16
0.0
 26
0.0
 36
1.0
 17
0.0
 27
0.0
 37
0.0
 40
594.5869438606226
 41
1.876016260162601
 42
50.0
 43
566.2542684027864
 44
-566.2542684027864
 50
0.0
 51
0.0
 71
    16
 72
   100
 73
     1
 74
     1
 75
     0
 76
     0
 77
     0
 78
     0
281
     0
 65
     0
110
0.0
120
0.0
130
0.0
111
1.0
121
0.0
131
0.0
112
0.0
122
1.0
132
0.0
 79
     0
146
0.0
  0
ENDTAB
  0
TABLE
  2
LTYPE
  5
4
330
0
100
AcDbSymbolTable
 70
     7
  0
LTYPE
  5
11
330
4
100
AcDbSymbolTableRecord
100
AcDbLinetypeTableRecord
  2
ByBlock
 70
     0
  3

 72
    65
 73
     0
 40
0.0
  0
LTYPE
  5
12
330
4
100
AcDbSymbolTableRecord
100
AcDbLinetypeTableRecord
  2
ByLayer
 70
     0
  3

 72
    65
 73
     0
 40
0.0
  0
LTYPE
  5
13
330
4
100
AcDbSymbolTableRecord
100
AcDbLinetypeTableRecord
  2
Continuous
 70
     0
  3
Solid line
 72
    65
 73
     0
 40
0.0
  0
LTYPE
  5
24
330
4
100
AcDbSymbolTableRecord
100
AcDbLinetypeTableRecord
  2
DASHED
 70
     0
  3
__ __ __ __ __ __ __ __ __
 72
    65
 73
     2
 40
0.75
 49
0.5
 74
     0
 49
-0.25
 74
     0
  0
LTYPE
  5
25
330
4
100
AcDbSymbolTableRecord
100
AcDbLinetypeTableRecord
  2
HIDDEN
 70
     0
  3
_ _ _ _ _ _ _ _ _ _ _ _ _ _ _
 72
    65
 73
     2
 40
0.5
 49
0.25
 74
     0
 49
-0.25
 74
     0
  0
LTYPE
  5
26
330
4
100
AcDbSymbolTableRecord
100
AcDbLinetypeTableRecord
  2
PHANTOM
 70
     0
  3
____ _ _ ____ _ _ _____ _ _ ____
 72
    65
 73
     6
 40
2.5
 49
1.25
 74
     0
 49
-0.25
 74
     0
 49
0.25
 74
     0
 49
-0.25
 74
     0
 49
0.25
 74
     0
 49
-0.25
 74
     0
  0
LTYPE
  5
27
330
4
100
AcDbSymbolTableRecord
100
AcDbLinetypeTableRecord
  2
CENTER
 70
     0
  3
____ _ ____ _ ____ _ ____
 72
    65
 73
     4
 40
2.0
 49
1.25
 74
     0
 49
-0.25
 74
     0
 49
0.25
 74
     0
 49
-0.25
 74
     0
  0
LTYPE
  5
28
330
4
100
AcDbSymbolTableRecord
100
AcDbLinetypeTableRecord
  2
DOT
 70
     0
  3
.........................
 72
    65
 73
     2
 40
0.25
 49
0.0
 74
     0
 49
-0.25
 74
     0
  0
LTYPE
  5
29
330
4
100
AcDbSymbolTableRecord
100
AcDbLinetypeTableRecord
  2
DASHDOT
 70
     0
  3
_._._._._._._._._._._._._._._._.
 72
    65
 73
     4
 40
1.0
 49
0.5
 74
     0
 49
-0.25
 74
     0
 49
0.0
 74
     0
 49
-0.25
 74
     0
  0
ENDTAB
  0
TABLE
  2
LAYER
  5
2
330
0
100
AcDbSymbolTable
 70
     3
  0
LAYER
  5
14
330
2
100
AcDbSymbolTableRecord
100
AcDbLayerTableRecord
  2
0
 70
     0
 62
     7
  6
Continuous
370
    -3
390
1D
  0
LAYER
  5
2B
330
2
100
AcDbSymbolTableRecord
100
AcDbLayerTableRecord
  2
1
 70
     0
 62
     7
  6
Continuous
370
    -3
390
1D
  0
LAYER
  5
64
330
2
100
AcDbSymbolTableRecord
100
AcDbLayerTableRecord
  2
Defpoints
 70
     0
 62
     7
  6
Continuous
290
     0
370
    -3
390
1D
  0
ENDTAB
  0
TABLE
  2
STYLE
  5
3
330
0
100
AcDbSymbolTable
 70
     1
  0
STYLE
  5
17
330
3
100
AcDbSymbolTableRecord
100
AcDbTextStyleTableRecord
  2
Standard
 70
     0
 40
0.0
 41
1.0
 50
0.0
 71
     0
 42
0.2
  3
txt
  4

  0
ENDTAB
  0
TABLE
  2
VIEW
  5
5
330
0
100
AcDbSymbolTable
 70
     8
  0
VIEW
  5
43
330
5
100
AcDbSymbolTableRecord
100
AcDbViewTableRecord
  2
TOP
 70
     0
 40
176.5625
 10
0.0
 20
0.0
 41
283.125
 11
0.0
 21
0.0
 31
1.0
 12
0.0
 22
0.0
 32
0.0
 42
50.0
 43
566.2542684027864
 44
-566.2542684027864
 50
0.0
 71
    16
281
     0
 72
     0
  0
VIEW
  5
44
330
5
100
AcDbSymbolTableRecord
100
AcDbViewTableRecord
  2
FRONT
 70
     0
 40
1132.508536805573
 10
0.0
 20
0.0
 41
283.125
 11
0.0
 21
-1.0
 31
0.0
 12
0.0
 22
0.0
 32
0.0
 42
50.0
 43
583.681281086369
 44
-583.681281086369
 50
0.0
 71
    16
281
     0
 72
     0
  0
VIEW
  5
45
330
5
100
AcDbSymbolTableRecord
100
AcDbViewTableRecord
  2
RIGHT
 70
     0
 40
1132.508536805573
 10
0.0
 20
0.0
 41
176.5625
 11
1.0
 21
0.0
 31
0.0
 12
0.0
 22
0.0
 32
0.0
 42
50.0
 43
573.0946480171817
 44
-573.0946480171817
 50
0.0
 71
    16
281
     0
 72
     0
  0
VIEW
  5
46
330
5
100
AcDbSymbolTableRecord
100
AcDbViewTableRecord
  2
BACK
 70
     0
 40
1132.508536805573
 10
0.0
 20
0.0
 41
283.125
 11
0.0
 21
1.0
 31
0.0
 12
0.0
 22
0.0
 32
0.0
 42
50.0
 43
583.681281086369
 44
-583.681281086369
 50
0.0
 71
    16
281
     0
 72
     0
  0
VIEW
  5
47
330
5
100
AcDbSymbolTableRecord
100
AcDbViewTableRecord
  2
BOTTOM
 70
     0
 40
176.5625
 10
0.0
 20
0.0
 41
283.125
 11
0.0
 21
0.0
 31
-1.0
 12
0.0
 22
0.0
 32
0.0
 42
50.0
 43
566.2542684027864
 44
-566.2542684027864
 50
180.0
 71
    16
281
     0
 72
     0
  0
VIEW
  5
48
330
5
100
AcDbSymbolTableRecord
100
AcDbViewTableRecord
  2
LEFT
 70
     0
 40
1132.508536805573
 10
0.0
 20
0.0
 41
176.5625
 11
-1.0
 21
0.0
 31
0.0
 12
0.0
 22
0.0
 32
0.0
 42
50.0
 43
573.0946480171817
 44
-573.0946480171817
 50
0.0
 71
    16
281
     0
 72
     0
  0
VIEW
  5
49
330
5
100
AcDbSymbolTableRecord
100
AcDbViewTableRecord
  2
TFR-ISO
 70
     0
 40
1112.355984195819
 10
0.0
 20
0.0
 41
325.048148476691
 11
0.5773502691896259
 21
-0.5773502691896259
 31
0.5773502691896259
 12
0.0
 22
0.0
 32
0.0
 42
50.0
 43
579.4376874186676
 44
-579.4376874186676
 50
0.0
 71
    16
281
     0
 72
     0
  0
VIEW
  5
4A
330
5
100
AcDbSymbolTableRecord
100
AcDbViewTableRecord
  2
TFR-TRI
 70
     0
 40
1173.951112383371
 10
0.0
 20
0.0
 41
315.6565836746264
 11
0.7188730927569434
 21
-0.5850486126764432
 31
0.3754192287502549
 12
0.0
 22
0.0
 32
0.0
 42
50.0
 43
607.8240479537008
 44
-607.8240479537008
 50
0.0
 71
    16
281
     0
 72
     0
  0
ENDTAB
  0
TABLE
  2
UCS
  5
6
330
0
100
AcDbSymbolTable
 70
     0
  0
ENDTAB
  0
TABLE
  2
APPID
  5
8
330
0
100
AcDbSymbolTable
 70
     2
  0
APPID
  5
16
330
8
100
AcDbSymbolTableRecord
100
AcDbRegAppTableRecord
  2
ACAD
 70
     0
  0
APPID
  5
E7
330
8
100
AcDbSymbolTableRecord
100
AcDbRegAppTableRecord
  2
DCO15
 70
     0
  0
ENDTAB
  0
TABLE
  2
DIMSTYLE
  5
9
330
0
100
AcDbSymbolTable
 70
     1
100
AcDbDimStyleTable
 71
     1
340
18
  0
DIMSTYLE
105
18
102
{ACAD_REACTORS
330
63
330
72
330
80
330
8E
330
9C
330
AA
330
B8
330
C4
330
D0
102
}
330
9
100
AcDbSymbolTableRecord
100
AcDbDimStyleTableRecord
  2
Standard
 70
     0
289
     0
340
17
  0
ENDTAB
  0
TABLE
  2
BLOCK_RECORD
  5
1
330
0
100
AcDbSymbolTable
 70
     9
  0
BLOCK_RECORD
  5
A
330
1
100
AcDbSymbolTableRecord
100
AcDbBlockTableRecord
  2
*MODEL_SPACE
340
20
  0
BLOCK_RECORD
  5
B
330
1
100
AcDbSymbolTableRecord
100
AcDbBlockTableRecord
  2
*PAPER_SPACE
340
21
  0
BLOCK_RECORD
  5
65
330
1
100
AcDbSymbolTableRecord
100
AcDbBlockTableRecord
  2
*D0
340
0
  0
BLOCK_RECORD
  5
73
330
1
100
AcDbSymbolTableRecord
100
AcDbBlockTableRecord
  2
*D1
340
0
  0
BLOCK_RECORD
  5
81
330
1
100
AcDbSymbolTableRecord
100
AcDbBlockTableRecord
  2
*D2
340
0
  0
BLOCK_RECORD
  5
8F
330
1
100
AcDbSymbolTableRecord
100
AcDbBlockTableRecord
  2
*D3
340
0
  0
BLOCK_RECORD
  5
9D
330
1
100
AcDbSymbolTableRecord
100
AcDbBlockTableRecord
  2
*D4
340
0
  0
BLOCK_RECORD
  5
AB
330
1
100
AcDbSymbolTableRecord
100
AcDbBlockTableRecord
  2
*D5
340
0
  0
BLOCK_RECORD
  5
B9
330
1
100
AcDbSymbolTableRecord
100
AcDbBlockTableRecord
  2
*D6
340
0
  0
BLOCK_RECORD
  5
C5
330
1
100
AcDbSymbolTableRecord
100
AcDbBlockTableRecord
  2
*D7
340
0
  0
BLOCK_RECORD
  5
D1
330
1
100
AcDbSymbolTableRecord
100
AcDbBlockTableRecord
  2
*D8
340
0
  0
ENDTAB
  0
ENDSEC
  0
SECTION
  2
BLOCKS
  0
BLOCK
  5
D
330
A
100
AcDbEntity
  8
0
100
AcDbBlockBegin
  2
*MODEL_SPACE
 70
     0
 10
0.0
 20
0.0
 30
0.0
  3
*MODEL_SPACE
  1

  0
ENDBLK
  5
E
330
A
100
AcDbEntity
  8
0
100
AcDbBlockEnd
  0
BLOCK
  5
F
330
B
100
AcDbEntity
 67
     1
  8
0
100
AcDbBlockBegin
  2
*PAPER_SPACE
 70
     0
 10
0.0
 20
0.0
 30
0.0
  3
*PAPER_SPACE
  1

  0
ENDBLK
  5
10
330
B
100
AcDbEntity
 67
     1
  8
0
100
AcDbBlockEnd
  0
BLOCK
  5
70
330
65
100
AcDbEntity
  8
0
370
     0
100
AcDbBlockBegin
  2
*D0
 70
     1
 10
0.0
 20
0.0
 30
0.0
  3
*D0
  1

  0
LINE
  5
66
330
65
100
AcDbEntity
  8
0
  6
Continuous
 62
     0
370
     0
100
AcDbLine
 10
-348.65
 20
-0.0625
 30
0.0
 11
-348.65
 21
-245.4968782520619
 31
0.0
  0
LINE
  5
67
330
65
100
AcDbEntity
  8
0
  6
Continuous
 62
     0
370
     0
100
AcDbLine
 10
348.65
 20
-0.0625
 30
0.0
 11
348.65
 21
-245.4968782520619
 31
0.0
  0
LINE
  5
68
330
65
100
AcDbEntity
  8
0
  6
Continuous
 62
     0
370
     0
100
AcDbLine
 10
-348.47
 20
-245.3168782520619
 30
0.0
 11
-40.50666666666667
 21
-245.3168782520619
 31
0.0
  0
LINE
  5
69
330
65
100
AcDbEntity
  8
0
  6
Continuous
 62
     0
370
     0
100
AcDbLine
 10
348.47
 20
-245.3168782520619
 30
0.0
 11
40.50666666666667
 21
-245.3168782520619
 31
0.0
  0
SOLID
  5
6A
330
65
100
AcDbEntity
  8
0
  6
Continuous
 62
     0
370
     0
100
AcDbTrace
 10
-348.47
 20
-245.2868782520619
 30
0.0
 11
-348.47
 21
-245.3468782520619
 31
0.0
 12
-348.65
 22
-245.3168782520619
 32
0.0
 13
-348.65
 23
-245.3168782520619
 33
0.0
  0
SOLID
  5
6B
330
65
100
AcDbEntity
  8
0
  6
Continuous
 62
     0
370
     0
100
AcDbTrace
 10
348.47
 20
-245.2868782520619
 30
0.0
 11
348.47
 21
-245.3468782520619
 31
0.0
 12
348.65
 22
-245.3168782520619
 32
0.0
 13
348.65
 23
-245.3168782520619
 33
0.0
  0
MTEXT
  5
6C
330
65
100
AcDbEntity
  8
0
  6
Continuous
 62
     0
370
     0
100
AcDbMText
 10
0.0
 20
-245.3168782520619
 30
0.0
 40
5.0
 41
0.0
 71
     5
 72
     1
  1
\A1;697.30mm [27.4527"]
 73
     1
 44
1.0
  0
POINT
  5
6D
330
65
100
AcDbEntity
  8
Defpoints
  6
Continuous
 62
     0
370
     0
100
AcDbPoint
 10
-348.65
 20
0.0
 30
0.0
  0
POINT
  5
6E
330
65
100
AcDbEntity
  8
Defpoints
  6
Continuous
 62
     0
370
     0
100
AcDbPoint
 10
348.65
 20
0.0
 30
0.0
  0
POINT
  5
6F
330
65
100
AcDbEntity
  8
Defpoints
  6
Continuous
 62
     0
370
     0
100
AcDbPoint
 10
348.65
 20
-245.3168782520619
 30
0.0
  0
ENDBLK
  5
71
330
65
100
AcDbEntity
  8
0
370
     0
100
AcDbBlockEnd
  0
BLOCK
  5
7E
330
73
100
AcDbEntity
  8
0
370
     0
100
AcDbBlockBegin
  2
*D1
 70
     1
 10
0.0
 20
0.0
 30
0.0
  3
*D1
  1

  0
LINE
  5
74
330
73
100
AcDbEntity
  8
0
  6
Continuous
 62
     0
370
     0
100
AcDbLine
 10
-355.0
 20
-0.0625
 30
0.0
 11
-355.0
 21
-261.0043844192573
 31
0.0
  0
LINE
  5
75
330
73
100
AcDbEntity
  8
0
  6
Continuous
 62
     0
370
     0
100
AcDbLine
 10
355.0
 20
-0.0625
 30
0.0
 11
355.0
 21
-261.0043844192573
 31
0.0
  0
LINE
  5
76
330
73
100
AcDbEntity
  8
0
  6
Continuous
 62
     0
370
     0
100
AcDbLine
 10
-354.82
 20
-260.8243844192573
 30
0.0
 11
-38.84
 21
-260.8243844192573
 31
0.0
  0
LINE
  5
77
330
73
100
AcDbEntity
  8
0
  6
Continuous
 62
     0
370
     0
100
AcDbLine
 10
354.82
 20
-260.8243844192573
 30
0.0
 11
38.84
 21
-260.8243844192573
 31
0.0
  0
SOLID
  5
78
330
73
100
AcDbEntity
  8
0
  6
Continuous
 62
     0
370
     0
100
AcDbTrace
 10
-354.82
 20
-260.7943844192573
 30
0.0
 11
-354.82
 21
-260.8543844192573
 31
0.0
 12
-355.0
 22
-260.8243844192573
 32
0.0
 13
-355.0
 23
-260.8243844192573
 33
0.0
  0
SOLID
  5
79
330
73
100
AcDbEntity
  8
0
  6
Continuous
 62
     0
370
     0
100
AcDbTrace
 10
354.82
 20
-260.7943844192573
 30
0.0
 11
354.82
 21
-260.8543844192573
 31
0.0
 12
355.0
 22
-260.8243844192573
 32
0.0
 13
355.0
 23
-260.8243844192573
 33
0.0
  0
MTEXT
  5
7A
330
73
100
AcDbEntity
  8
0
  6
Continuous
 62
     0
370
     0
100
AcDbMText
 10
0.0
 20
-260.8243844192573
 30
0.0
 40
5.0
 41
0.0
 71
     5
 72
     1
  1
\A1;710.00mm [27.9527"]
 73
     1
 44
1.0
  0
POINT
  5
7B
330
73
100
AcDbEntity
  8
Defpoints
  6
Continuous
 62
     0
370
     0
100
AcDbPoint
 10
-355.0
 20
0.0
 30
0.0
  0
POINT
  5
7C
330
73
100
AcDbEntity
  8
Defpoints
  6
Continuous
 62
     0
370
     0
100
AcDbPoint
 10
355.0
 20
0.0
 30
0.0
  0
POINT
  5
7D
330
73
100
AcDbEntity
  8
Defpoints
  6
Continuous
 62
     0
370
     0
100
AcDbPoint
 10
355.0
 20
-260.8243844192573
 30
0.0
  0
ENDBLK
  5
7F
330
73
100
AcDbEntity
  8
0
370
     0
100
AcDbBlockEnd
  0
BLOCK
  5
8C
330
81
100
AcDbEntity
  8
0
370
     0
100
AcDbBlockBegin
  2
*D2
 70
     1
 10
0.0
 20
0.0
 30
0.0
  3
*D2
  1

  0
LINE
  5
82
330
81
100
AcDbEntity
  8
0
  6
Continuous
 62
     0
370
     0
100
AcDbLine
 10
361.35
 20
-0.0625
 30
0.0
 11
361.35
 21
-277.2140115767201
 31
0.0
  0
LINE
  5
83
330
81
100
AcDbEntity
  8
0
  6
Continuous
 62
     0
370
     0
100
AcDbLine
 10
-361.35
 20
-0.0625
 30
0.0
 11
-361.35
 21
-277.2140115767201
 31
0.0
  0
LINE
  5
84
330
81
100
AcDbEntity
  8
0
  6
Continuous
 62
     0
370
     0
100
AcDbLine
 10
361.17
 20
-277.0340115767201
 30
0.0
 11
40.50666666666667
 21
-277.0340115767201
 31
0.0
  0
LINE
  5
85
330
81
100
AcDbEntity
  8
0
  6
Continuous
 62
     0
370
     0
100
AcDbLine
 10
-361.17
 20
-277.0340115767201
 30
0.0
 11
-40.50666666666667
 21
-277.0340115767201
 31
0.0
  0
SOLID
  5
86
330
81
100
AcDbEntity
  8
0
  6
Continuous
 62
     0
370
     0
100
AcDbTrace
 10
361.17
 20
-277.0040115767201
 30
0.0
 11
361.17
 21
-277.0640115767201
 31
0.0
 12
361.35
 22
-277.0340115767201
 32
0.0
 13
361.35
 23
-277.0340115767201
 33
0.0
  0
SOLID
  5
87
330
81
100
AcDbEntity
  8
0
  6
Continuous
 62
     0
370
     0
100
AcDbTrace
 10
-361.17
 20
-277.0040115767201
 30
0.0
 11
-361.17
 21
-277.0640115767201
 31
0.0
 12
-361.35
 22
-277.0340115767201
 32
0.0
 13
-361.35
 23
-277.0340115767201
 33
0.0
  0
MTEXT
  5
88
330
81
100
AcDbEntity
  8
0
  6
Continuous
 62
     0
370
     0
100
AcDbMText
 10
0.0
 20
-277.0340115767201
 30
0.0
 40
5.0
 41
0.0
 71
     5
 72
     1
  1
\A1;722.70mm [28.4527"]
 73
     1
 44
1.0
  0
POINT
  5
89
330
81
100
AcDbEntity
  8
Defpoints
  6
Continuous
 62
     0
370
     0
100
AcDbPoint
 10
361.35
 20
0.0
 30
0.0
  0
POINT
  5
8A
330
81
100
AcDbEntity
  8
Defpoints
  6
Continuous
 62
     0
370
     0
100
AcDbPoint
 10
-361.35
 20
0.0
 30
0.0
  0
POINT
  5
8B
330
81
100
AcDbEntity
  8
Defpoints
  6
Continuous
 62
     0
370
     0
100
AcDbPoint
 10
-361.35
 20
-277.0340115767201
 30
0.0
  0
ENDBLK
  5
8D
330
81
100
AcDbEntity
  8
0
370
     0
100
AcDbBlockEnd
  0
BLOCK
  5
9A
330
8F
100
AcDbEntity
  8
0
370
     0
100
AcDbBlockBegin
  2
*D3
 70
     1
 10
0.0
 20
0.0
 30
0.0
  3
*D3
  1

  0
LINE
  5
90
330
8F
100
AcDbEntity
  8
0
  6
Continuous
 62
     0
370
     0
100
AcDbLine
 10
0.0625
 20
-198.65
 30
0.0
 11
395.8549178964385
 21
-198.6500000000001
 31
0.0
  0
LINE
  5
91
330
8F
100
AcDbEntity
  8
0
  6
Continuous
 62
     0
370
     0
100
AcDbLine
 10
0.0625
 20
198.65
 30
0.0
 11
395.8549178964386
 21
198.6499999999999
 31
0.0
  0
LINE
  5
92
330
8F
100
AcDbEntity
  8
0
  6
Continuous
 62
     0
370
     0
100
AcDbLine
 10
395.6749178964384
 20
-198.4700000000001
 30
0.0
 11
395.6749178964385
 21
-38.84000000000013
 31
0.0
  0
LINE
  5
93
330
8F
100
AcDbEntity
  8
0
  6
Continuous
 62
     0
370
     0
100
AcDbLine
 10
395.6749178964386
 20
198.4699999999999
 30
0.0
 11
395.6749178964385
 21
38.8399999999999
 31
0.0
  0
SOLID
  5
94
330
8F
100
AcDbEntity
  8
0
  6
Continuous
 62
     0
370
     0
100
AcDbTrace
 10
395.6449178964385
 20
-198.4700000000001
 30
0.0
 11
395.7049178964384
 21
-198.4700000000001
 31
0.0
 12
395.6749178964384
 22
-198.6500000000001
 32
0.0
 13
395.6749178964384
 23
-198.6500000000001
 33
0.0
  0
SOLID
  5
95
330
8F
100
AcDbEntity
  8
0
  6
Continuous
 62
     0
370
     0
100
AcDbTrace
 10
395.6449178964386
 20
198.4699999999999
 30
0.0
 11
395.7049178964386
 21
198.4699999999999
 31
0.0
 12
395.6749178964386
 22
198.6499999999999
 32
0.0
 13
395.6749178964386
 23
198.6499999999999
 33
0.0
  0
MTEXT
  5
96
330
8F
100
AcDbEntity
  8
0
  6
Continuous
 62
     0
370
     0
100
AcDbMText
 10
395.6749178964385
 20
-0.0000000000000526
 30
0.0
 40
5.0
 41
0.0
 71
     5
 72
     1
  1
\A1;397.30mm [15.6417"]
 11
0.0000000000000001
 21
1.0
 31
0.0
 73
     1
 44
1.0
  0
POINT
  5
97
330
8F
100
AcDbEntity
  8
Defpoints
  6
Continuous
 62
     0
370
     0
100
AcDbPoint
 10
0.0
 20
-198.65
 30
0.0
  0
POINT
  5
98
330
8F
100
AcDbEntity
  8
Defpoints
  6
Continuous
 62
     0
370
     0
100
AcDbPoint
 10
0.0
 20
198.65
 30
0.0
  0
POINT
  5
99
330
8F
100
AcDbEntity
  8
Defpoints
  6
Continuous
 62
     0
370
     0
100
AcDbPoint
 10
395.6749178964386
 20
198.6499999999999
 30
0.0
  0
ENDBLK
  5
9B
330
8F
100
AcDbEntity
  8
0
370
     0
100
AcDbBlockEnd
  0
BLOCK
  5
A8
330
9D
100
AcDbEntity
  8
0
370
     0
100
AcDbBlockBegin
  2
*D4
 70
     1
 10
0.0
 20
0.0
 30
0.0
  3
*D4
  1

  0
LINE
  5
9E
330
9D
100
AcDbEntity
  8
0
  6
Continuous
 62
     0
370
     0
100
AcDbLine
 10
0.0625
 20
205.0
 30
0.0
 11
413.0966433923431
 21
204.9999999999999
 31
0.0
  0
LINE
  5
9F
330
9D
100
AcDbEntity
  8
0
  6
Continuous
 62
     0
370
     0
100
AcDbLine
 10
0.0625
 20
-205.0
 30
0.0
 11
413.096643392343
 21
-205.0000000000001
 31
0.0
  0
LINE
  5
A0
330
9D
100
AcDbEntity
  8
0
  6
Continuous
 62
     0
370
     0
100
AcDbLine
 10
412.9166433923431
 20
204.8199999999999
 30
0.0
 11
412.9166433923431
 21
36.33999999999989
 31
0.0
  0
LINE
  5
A1
330
9D
100
AcDbEntity
  8
0
  6
Continuous
 62
     0
370
     0
100
AcDbLine
 10
412.916643392343
 20
-204.8200000000001
 30
0.0
 11
412.9166433923431
 21
-36.34000000000013
 31
0.0
  0
SOLID
  5
A2
330
9D
100
AcDbEntity
  8
0
  6
Continuous
 62
     0
370
     0
100
AcDbTrace
 10
412.8866433923431
 20
204.8199999999999
 30
0.0
 11
412.9466433923431
 21
204.8199999999999
 31
0.0
 12
412.9166433923431
 22
204.9999999999999
 32
0.0
 13
412.9166433923431
 23
204.9999999999999
 33
0.0
  0
SOLID
  5
A3
330
9D
100
AcDbEntity
  8
0
  6
Continuous
 62
     0
370
     0
100
AcDbTrace
 10
412.886643392343
 20
-204.8200000000001
 30
0.0
 11
412.946643392343
 21
-204.8200000000001
 31
0.0
 12
412.916643392343
 22
-205.0000000000001
 32
0.0
 13
412.916643392343
 23
-205.0000000000001
 33
0.0
  0
MTEXT
  5
A4
330
9D
100
AcDbEntity
  8
0
  6
Continuous
 62
     0
370
     0
100
AcDbMText
 10
412.9166433923431
 20
-0.0000000000000537
 30
0.0
 40
5.0
 41
0.0
 71
     5
 72
     1
  1
\A1;410.00mm [16.1417"]
 11
0.0000000000000001
 21
1.0
 31
0.0
 73
     1
 44
1.0
  0
POINT
  5
A5
330
9D
100
AcDbEntity
  8
Defpoints
  6
Continuous
 62
     0
370
     0
100
AcDbPoint
 10
0.0
 20
205.0
 30
0.0
  0
POINT
  5
A6
330
9D
100
AcDbEntity
  8
Defpoints
  6
Continuous
 62
     0
370
     0
100
AcDbPoint
 10
0.0
 20
-205.0
 30
0.0
  0
POINT
  5
A7
330
9D
100
AcDbEntity
  8
Defpoints
  6
Continuous
 62
     0
370
     0
100
AcDbPoint
 10
412.916643392343
 20
-205.0000000000001
 30
0.0
  0
ENDBLK
  5
A9
330
9D
100
AcDbEntity
  8
0
370
     0
100
AcDbBlockEnd
  0
BLOCK
  5
B6
330
AB
100
AcDbEntity
  8
0
370
     0
100
AcDbBlockBegin
  2
*D5
 70
     1
 10
0.0
 20
0.0
 30
0.0
  3
*D5
  1

  0
LINE
  5
AC
330
AB
100
AcDbEntity
  8
0
  6
Continuous
 62
     0
370
     0
100
AcDbLine
 10
0.0625
 20
211.35
 30
0.0
 11
432.3668063075647
 21
211.3499999999999
 31
0.0
  0
LINE
  5
AD
330
AB
100
AcDbEntity
  8
0
  6
Continuous
 62
     0
370
     0
100
AcDbLine
 10
0.0625
 20
-211.35
 30
0.0
 11
432.3668063075646
 21
-211.3500000000001
 31
0.0
  0
LINE
  5
AE
330
AB
100
AcDbEntity
  8
0
  6
Continuous
 62
     0
370
     0
100
AcDbLine
 10
432.1868063075647
 20
211.1699999999999
 30
0.0
 11
432.1868063075647
 21
38.83999999999988
 31
0.0
  0
LINE
  5
AF
330
AB
100
AcDbEntity
  8
0
  6
Continuous
 62
     0
370
     0
100
AcDbLine
 10
432.1868063075646
 20
-211.1700000000001
 30
0.0
 11
432.1868063075647
 21
-38.84000000000014
 31
0.0
  0
SOLID
  5
B0
330
AB
100
AcDbEntity
  8
0
  6
Continuous
 62
     0
370
     0
100
AcDbTrace
 10
432.1568063075647
 20
211.1699999999999
 30
0.0
 11
432.2168063075647
 21
211.1699999999999
 31
0.0
 12
432.1868063075647
 22
211.3499999999999
 32
0.0
 13
432.1868063075647
 23
211.3499999999999
 33
0.0
  0
SOLID
  5
B1
330
AB
100
AcDbEntity
  8
0
  6
Continuous
 62
     0
370
     0
100
AcDbTrace
 10
432.1568063075646
 20
-211.1700000000001
 30
0.0
 11
432.2168063075645
 21
-211.1700000000001
 31
0.0
 12
432.1868063075646
 22
-211.3500000000001
 32
0.0
 13
432.1868063075646
 23
-211.3500000000001
 33
0.0
  0
MTEXT
  5
B2
330
AB
100
AcDbEntity
  8
0
  6
Continuous
 62
     0
370
     0
100
AcDbMText
 10
432.1868063075647
 20
-0.0000000000000549
 30
0.0
 40
5.0
 41
0.0
 71
     5
 72
     1
  1
\A1;422.70mm [16.6417"]
 11
0.0000000000000001
 21
1.0
 31
0.0
 73
     1
 44
1.0
  0
POINT
  5
B3
330
AB
100
AcDbEntity
  8
Defpoints
  6
Continuous
 62
     0
370
     0
100
AcDbPoint
 10
0.0
 20
211.35
 30
0.0
  0
POINT
  5
B4
330
AB
100
AcDbEntity
  8
Defpoints
  6
Continuous
 62
     0
370
     0
100
AcDbPoint
 10
0.0
 20
-211.35
 30
0.0
  0
POINT
  5
B5
330
AB
100
AcDbEntity
  8
Defpoints
  6
Continuous
 62
     0
370
     0
100
AcDbPoint
 10
432.1868063075646
 20
-211.3500000000001
 30
0.0
  0
ENDBLK
  5
B7
330
AB
100
AcDbEntity
  8
0
370
     0
100
AcDbBlockEnd
  0
BLOCK
  5
C2
330
B9
100
AcDbEntity
  8
0
370
     0
100
AcDbBlockBegin
  2
*D6
 70
     1
 10
0.0
 20
0.0
 30
0.0
  3
*D6
  1

  0
LINE
  5
BA
330
B9
100
AcDbEntity
  8
0
  6
Continuous
 62
     0
370
     0
100
AcDbLine
 10
-341.112117142892
 20
234.3712565664028
 30
0.0
 11
-340.932117142892
 21
234.3712565664028
 31
0.0
  0
LINE
  5
BB
330
B9
100
AcDbEntity
  8
0
  6
Continuous
 62
     0
370
     0
100
AcDbLine
 10
-340.932117142892
 20
234.3712565664028
 30
0.0
 11
-322.5379354371077
 21
201.6914110146092
 31
0.0
  0
MTEXT
  5
BC
330
B9
100
AcDbEntity
  8
0
  6
Continuous
 62
     0
370
     0
100
AcDbMText
 10
-386.202117142892
 20
234.3712565664028
 30
0.0
 40
5.0
 41
0.0
 71
     5
 72
     1
  1
\A1;4-R76.35mm [R3.0059"]
 73
     1
 44
1.0
  0
SOLID
  5
BD
330
B9
100
AcDbEntity
  8
0
  6
Continuous
 62
     0
370
     0
100
AcDbTrace
 10
-322.511792194844
 20
201.7061260030204
 30
0.0
 11
-322.5640786793714
 21
201.6766960261979
 31
0.0
 12
-322.4496455066401
 22
201.5345515610272
 32
0.0
 13
-322.4496455066401
 23
201.5345515610272
 33
0.0
  0
LINE
  5
BE
330
B9
100
AcDbEntity
  8
0
  6
Continuous
 62
     0
370
     0
100
AcDbLine
 10
-285.09
 20
134.9999999999996
 30
0.0
 11
-284.9100000000001
 21
134.9999999999996
 31
0.0
  0
LINE
  5
BF
330
B9
100
AcDbEntity
  8
0
  6
Continuous
 62
     0
370
     0
100
AcDbLine
 10
-285.0000000000001
 20
134.9099999999996
 30
0.0
 11
-285.0000000000001
 21
135.0899999999996
 31
0.0
  0
POINT
  5
C0
330
B9
100
AcDbEntity
  8
Defpoints
  6
Continuous
 62
     0
370
     0
100
AcDbPoint
 10
-322.4496455066401
 20
201.5345515610272
 30
0.0
  0
POINT
  5
C1
330
B9
100
AcDbEntity
  8
Defpoints
  6
Continuous
 62
     0
370
     0
100
AcDbPoint
 10
-285.0000000000001
 20
134.9999999999996
 30
0.0
  0
ENDBLK
  5
C3
330
B9
100
AcDbEntity
  8
0
370
     0
100
AcDbBlockEnd
  0
BLOCK
  5
CE
330
C5
100
AcDbEntity
  8
0
370
     0
100
AcDbBlockBegin
  2
*D7
 70
     1
 10
0.0
 20
0.0
 30
0.0
  3
*D7
  1

  0
LINE
  5
C6
330
C5
100
AcDbEntity
  8
0
  6
Continuous
 62
     0
370
     0
100
AcDbLine
 10
-352.7324940040773
 20
214.6675258979596
 30
0.0
 11
-352.5524940040773
 21
214.6675258979596
 31
0.0
  0
LINE
  5
C7
330
C5
100
AcDbEntity
  8
0
  6
Continuous
 62
     0
370
     0
100
AcDbLine
 10
-352.5524940040773
 20
214.6675258979596
 30
0.0
 11
-330.3876103879046
 21
188.527537055947
 31
0.0
  0
MTEXT
  5
C8
330
C5
100
AcDbEntity
  8
0
  6
Continuous
 62
     0
370
     0
100
AcDbMText
 10
-397.4058273374106
 20
214.6675258979596
 30
0.0
 40
5.0
 41
0.0
 71
     5
 72
     1
  1
\A1;4-R70.00mm [R2.7559"]
 73
     1
 44
1.0
  0
SOLID
  5
C9
330
C5
100
AcDbEntity
  8
0
  6
Continuous
 62
     0
370
     0
100
AcDbTrace
 10
-330.3647288531128
 20
188.5469389982616
 30
0.0
 11
-330.4104919226962
 21
188.5081351136325
 31
0.0
 12
-330.271198734017
 22
188.3902478471971
 32
0.0
 13
-330.271198734017
 23
188.3902478471971
 33
0.0
  0
LINE
  5
CA
330
C5
100
AcDbEntity
  8
0
  6
Continuous
 62
     0
370
     0
100
AcDbLine
 10
-285.0899999999997
 20
134.9999999999998
 30
0.0
 11
-284.9099999999997
 21
134.9999999999997
 31
0.0
  0
LINE
  5
CB
330
C5
100
AcDbEntity
  8
0
  6
Continuous
 62
     0
370
     0
100
AcDbLine
 10
-284.9999999999997
 20
134.9099999999997
 30
0.0
 11
-284.9999999999997
 21
135.0899999999997
 31
0.0
  0
POINT
  5
CC
330
C5
100
AcDbEntity
  8
Defpoints
  6
Continuous
 62
     0
370
     0
100
AcDbPoint
 10
-330.271198734017
 20
188.3902478471971
 30
0.0
  0
POINT
  5
CD
330
C5
100
AcDbEntity
  8
Defpoints
  6
Continuous
 62
     0
370
     0
100
AcDbPoint
 10
-284.9999999999997
 20
134.9999999999997
 30
0.0
  0
ENDBLK
  5
CF
330
C5
100
AcDbEntity
  8
0
370
     0
100
AcDbBlockEnd
  0
BLOCK
  5
DA
330
D1
100
AcDbEntity
  8
0
370
     0
100
AcDbBlockBegin
  2
*D8
 70
     1
 10
0.0
 20
0.0
 30
0.0
  3
*D8
  1

  0
LINE
  5
D2
330
D1
100
AcDbEntity
  8
0
  6
Continuous
 62
     0
370
     0
100
AcDbLine
 10
-368.226329199681
 20
193.2045326648938
 30
0.0
 11
-368.046329199681
 21
193.2045326648938
 31
0.0
  0
LINE
  5
D3
330
D1
100
AcDbEntity
  8
0
  6
Continuous
 62
     0
370
     0
100
AcDbLine
 10
-368.046329199681
 20
193.2045326648938
 30
0.0
 11
-337.2702442568452
 21
171.6345528883557
 31
0.0
  0
MTEXT
  5
D4
330
D1
100
AcDbEntity
  8
0
  6
Continuous
 62
     0
370
     0
100
AcDbMText
 10
-413.7329958663475
 20
193.2045326648938
 30
0.0
 40
5.0
 41
0.0
 71
     5
 72
     1
  1
\A1;4-R63.65mm [R2.5059"]
 73
     1
 44
1.0
  0
SOLID
  5
D5
330
D1
100
AcDbEntity
  8
0
  6
Continuous
 62
     0
370
     0
100
AcDbTrace
 10
-337.2530260743817
 20
171.6591198212666
 30
0.0
 11
-337.2874624393088
 21
171.6099859554447
 31
0.0
 12
-337.1228426593796
 22
171.5312437935742
 32
0.0
 13
-337.1228426593796
 23
171.5312437935742
 33
0.0
  0
LINE
  5
D6
330
D1
100
AcDbEntity
  8
0
  6
Continuous
 62
     0
370
     0
100
AcDbLine
 10
-285.0900000000002
 20
134.9999999999996
 30
0.0
 11
-284.9100000000003
 21
134.9999999999996
 31
0.0
  0
LINE
  5
D7
330
D1
100
AcDbEntity
  8
0
  6
Continuous
 62
     0
370
     0
100
AcDbLine
 10
-285.0000000000002
 20
134.9099999999995
 30
0.0
 11
-285.0000000000002
 21
135.0899999999996
 31
0.0
  0
POINT
  5
D8
330
D1
100
AcDbEntity
  8
Defpoints
  6
Continuous
 62
     0
370
     0
100
AcDbPoint
 10
-337.1228426593796
 20
171.5312437935742
 30
0.0
  0
POINT
  5
D9
330
D1
100
AcDbEntity
  8
Defpoints
  6
Continuous
 62
     0
370
     0
100
AcDbPoint
 10
-285.0000000000002
 20
134.9999999999996
 30
0.0
  0
ENDBLK
  5
DB
330
D1
100
AcDbEntity
  8
0
370
     0
100
AcDbBlockEnd
  0
ENDSEC
  0
SECTION
  2
ENTITIES
  0
LINE
  5
2A
330
A
100
AcDbEntity
  8
1
  6
Continuous
 62
     3
100
AcDbLine
 10
348.65
 20
-135.0
 30
0.0
 11
348.65
 21
135.0
 31
0.0
  0
LINE
  5
2C
330
A
100
AcDbEntity
  8
1
  6
Continuous
 62
     3
100
AcDbLine
 10
285.0
 20
198.65
 30
0.0
 11
-285.0
 21
198.65
 31
0.0
  0
LINE
  5
2D
330
A
100
AcDbEntity
  8
1
  6
Continuous
 62
     3
100
AcDbLine
 10
355.0
 20
-135.0
 30
0.0
 11
355.0
 21
135.0
 31
0.0
  0
LINE
  5
2E
330
A
100
AcDbEntity
  8
1
  6
Continuous
 62
     3
100
AcDbLine
 10
-348.65
 20
135.0
 30
0.0
 11
-348.65
 21
-135.0
 31
0.0
  0
LINE
  5
2F
330
A
100
AcDbEntity
  8
1
  6
Continuous
 62
     3
100
AcDbLine
 10
-285.0
 20
-211.35
 30
0.0
 11
285.0
 21
-211.35
 31
0.0
  0
LINE
  5
30
330
A
100
AcDbEntity
  8
1
  6
Continuous
 62
     3
100
AcDbLine
 10
-285.0
 20
-198.65
 30
0.0
 11
285.0
 21
-198.65
 31
0.0
  0
LINE
  5
31
330
A
100
AcDbEntity
  8
1
  6
Continuous
 62
     3
100
AcDbLine
 10
361.35
 20
-135.0
 30
0.0
 11
361.35
 21
135.0
 31
0.0
  0
LINE
  5
32
330
A
100
AcDbEntity
  8
1
  6
Continuous
 62
     3
100
AcDbLine
 10
285.0
 20
211.35
 30
0.0
 11
-285.0
 21
211.35
 31
0.0
  0
LINE
  5
33
330
A
100
AcDbEntity
  8
1
  6
Continuous
 62
     3
100
AcDbLine
 10
285.0
 20
205.0
 30
0.0
 11
-285.0
 21
205.0
 31
0.0
  0
LINE
  5
34
330
A
100
AcDbEntity
  8
1
  6
Continuous
 62
     3
100
AcDbLine
 10
-355.0
 20
135.0
 30
0.0
 11
-355.0
 21
-135.0
 31
0.0
  0
LINE
  5
35
330
A
100
AcDbEntity
  8
1
  6
Continuous
 62
     3
100
AcDbLine
 10
-285.0
 20
-205.0
 30
0.0
 11
285.0
 21
-205.0
 31
0.0
  0
LINE
  5
36
330
A
100
AcDbEntity
  8
1
  6
Continuous
 62
     3
100
AcDbLine
 10
-361.35
 20
135.0
 30
0.0
 11
-361.35
 21
-135.0
 31
0.0
  0
ARC
  5
37
330
A
100
AcDbEntity
  8
1
  6
Continuous
 62
     3
100
AcDbCircle
 10
285.0
 20
135.0
 30
0.0
 40
63.65
100
AcDbArc
 50
0.0
 51
89.99999999999998
  0
ARC
  5
38
330
A
100
AcDbEntity
  8
1
  6
Continuous
 62
     3
100
AcDbCircle
 10
-285.0
 20
135.0
 30
0.0
 40
63.65
100
AcDbArc
 50
89.99999999999998
 51
179.9999999999999
  0
ARC
  5
39
330
A
100
AcDbEntity
  8
1
  6
Continuous
 62
     3
100
AcDbCircle
 10
-285.0
 20
-135.0
 30
0.0
 40
70.0
100
AcDbArc
 50
179.9999999999999
 51
269.9999999999999
  0
ARC
  5
3A
330
A
100
AcDbEntity
  8
1
  6
Continuous
 62
     3
100
AcDbCircle
 10
285.0
 20
-135.0
 30
0.0
 40
70.0
100
AcDbArc
 50
269.9999999999999
 51
360.0
  0
ARC
  5
3B
330
A
100
AcDbEntity
  8
1
  6
Continuous
 62
     3
100
AcDbCircle
 10
-285.0
 20
135.0
 30
0.0
 40
70.0
100
AcDbArc
 50
89.99999999999998
 51
179.9999999999999
  0
ARC
  5
3C
330
A
100
AcDbEntity
  8
1
  6
Continuous
 62
     3
100
AcDbCircle
 10
285.0
 20
-135.0
 30
0.0
 40
76.34999999999999
100
AcDbArc
 50
269.9999999999999
 51
360.0
  0
ARC
  5
3D
330
A
100
AcDbEntity
  8
1
  6
Continuous
 62
     3
100
AcDbCircle
 10
-285.0
 20
135.0
 30
0.0
 40
76.34999999999999
100
AcDbArc
 50
89.99999999999998
 51
179.9999999999999
  0
ARC
  5
3E
330
A
100
AcDbEntity
  8
1
  6
Continuous
 62
     3
100
AcDbCircle
 10
-285.0
 20
-135.0
 30
0.0
 40
76.34999999999999
100
AcDbArc
 50
179.9999999999999
 51
269.9999999999999
  0
ARC
  5
3F
330
A
100
AcDbEntity
  8
1
  6
Continuous
 62
     3
100
AcDbCircle
 10
285.0
 20
-135.0
 30
0.0
 40
63.65
100
AcDbArc
 50
269.9999999999999
 51
360.0
  0
ARC
  5
40
330
A
100
AcDbEntity
  8
1
  6
Continuous
 62
     3
100
AcDbCircle
 10
-285.0
 20
-135.0
 30
0.0
 40
63.65
100
AcDbArc
 50
179.9999999999999
 51
269.9999999999999
  0
ARC
  5
41
330
A
100
AcDbEntity
  8
1
  6
Continuous
 62
     3
100
AcDbCircle
 10
285.0
 20
135.0
 30
0.0
 40
76.34999999999999
100
AcDbArc
 50
0.0
 51
89.99999999999998
  0
ARC
  5
42
330
A
100
AcDbEntity
  8
1
  6
Continuous
 62
     3
100
AcDbCircle
 10
285.0
 20
135.0
 30
0.0
 40
70.0
100
AcDbArc
 50
0.0
 51
89.99999999999998
  0
DIMENSION
  5
63
330
A
100
AcDbEntity
  8
0
  6
Continuous
370
     0
100
AcDbDimension
  2
*D0
 10
348.65
 20
-245.3168782520619
 30
0.0
 11
0.0
 21
-245.3168782520619
 31
0.0
 70
    32
 71
     5
 42
697.2999999999999
  3
Standard
100
AcDbAlignedDimension
 13
-348.65
 23
0.0
 33
0.0
 14
348.65
 24
0.0
 34
0.0
100
AcDbRotatedDimension
1001
ACAD
1000
DSTYLE
1002
{
1070
     3
1000
mm
1070
     4
1000
"
1070
    73
1070
     0
1070
   140
1040
5.0
1070
   143
1040
0.03937
1070
   170
1070
     1
1070
   171
1070
     4
1070
   271
1070
     2
1070
   272
1070
     2
1070
   274
1070
     4
1070
   278
1070
     0
1070
   289
1070
     3
1070
   371
1070
     0
1070
   372
1070
     0
1002
}
  0
DIMENSION
  5
72
330
A
100
AcDbEntity
  8
0
  6
Continuous
370
     0
100
AcDbDimension
  2
*D1
 10
355.0
 20
-260.8243844192573
 30
0.0
 11
0.0
 21
-260.8243844192573
 31
0.0
 70
    32
 71
     5
 42
710.0
  3
Standard
100
AcDbAlignedDimension
 13
-355.0
 23
0.0
 33
0.0
 14
355.0
 24
0.0
 34
0.0
100
AcDbRotatedDimension
1001
ACAD
1000
DSTYLE
1002
{
1070
     3
1000
mm
1070
     4
1000
"
1070
    73
1070
     0
1070
   140
1040
5.0
1070
   143
1040
0.03937
1070
   170
1070
     1
1070
   171
1070
     4
1070
   271
1070
     2
1070
   272
1070
     2
1070
   274
1070
     4
1070
   278
1070
     0
1070
   289
1070
     3
1070
   371
1070
     0
1070
   372
1070
     0
1002
}
  0
DIMENSION
  5
80
330
A
100
AcDbEntity
  8
0
  6
Continuous
370
     0
100
AcDbDimension
  2
*D2
 10
-361.35
 20
-277.0340115767201
 30
0.0
 11
0.0
 21
-277.0340115767201
 31
0.0
 70
    32
 71
     5
 42
722.7
  3
Standard
100
AcDbAlignedDimension
 13
361.35
 23
0.0
 33
0.0
 14
-361.35
 24
0.0
 34
0.0
100
AcDbRotatedDimension
1001
ACAD
1000
DSTYLE
1002
{
1070
     3
1000
mm
1070
     4
1000
"
1070
    73
1070
     0
1070
   140
1040
5.0
1070
   143
1040
0.03937
1070
   170
1070
     1
1070
   171
1070
     4
1070
   271
1070
     2
1070
   272
1070
     2
1070
   274
1070
     4
1070
   278
1070
     0
1070
   289
1070
     3
1070
   371
1070
     0
1070
   372
1070
     0
1002
}
  0
DIMENSION
  5
8E
330
A
100
AcDbEntity
  8
0
  6
Continuous
370
     0
100
AcDbDimension
  2
*D3
 10
395.6749178964386
 20
198.6499999999999
 30
0.0
 11
395.6749178964385
 21
-0.0000000000000526
 31
0.0
 70
    32
 71
     5
 42
397.3
  3
Standard
100
AcDbAlignedDimension
 13
0.0
 23
-198.65
 33
0.0
 14
0.0
 24
198.65
 34
0.0
 50
90.0
100
AcDbRotatedDimension
1001
ACAD
1000
DSTYLE
1002
{
1070
     3
1000
mm
1070
     4
1000
"
1070
    73
1070
     0
1070
   140
1040
5.0
1070
   143
1040
0.03937
1070
   170
1070
     1
1070
   171
1070
     4
1070
   271
1070
     2
1070
   272
1070
     2
1070
   274
1070
     4
1070
   278
1070
     0
1070
   289
1070
     3
1070
   371
1070
     0
1070
   372
1070
     0
1002
}
  0
DIMENSION
  5
9C
330
A
100
AcDbEntity
  8
0
  6
Continuous
370
     0
100
AcDbDimension
  2
*D4
 10
412.916643392343
 20
-205.0000000000001
 30
0.0
 11
412.9166433923431
 21
-0.0000000000000537
 31
0.0
 70
    32
 71
     5
 42
410.0
  3
Standard
100
AcDbAlignedDimension
 13
0.0
 23
205.0
 33
0.0
 14
0.0
 24
-205.0
 34
0.0
 50
90.0
100
AcDbRotatedDimension
1001
ACAD
1000
DSTYLE
1002
{
1070
     3
1000
mm
1070
     4
1000
"
1070
    73
1070
     0
1070
   140
1040
5.0
1070
   143
1040
0.03937
1070
   170
1070
     1
1070
   171
1070
     4
1070
   271
1070
     2
1070
   272
1070
     2
1070
   274
1070
     4
1070
   278
1070
     0
1070
   289
1070
     3
1070
   371
1070
     0
1070
   372
1070
     0
1002
}
  0
DIMENSION
  5
AA
330
A
100
AcDbEntity
  8
0
  6
Continuous
370
     0
100
AcDbDimension
  2
*D5
 10
432.1868063075646
 20
-211.3500000000001
 30
0.0
 11
432.1868063075647
 21
-0.0000000000000549
 31
0.0
 70
    32
 71
     5
 42
422.7
  3
Standard
100
AcDbAlignedDimension
 13
0.0
 23
211.35
 33
0.0
 14
0.0
 24
-211.35
 34
0.0
 50
90.0
100
AcDbRotatedDimension
1001
ACAD
1000
DSTYLE
1002
{
1070
     3
1000
mm
1070
     4
1000
"
1070
    73
1070
     0
1070
   140
1040
5.0
1070
   143
1040
0.03937
1070
   170
1070
     1
1070
   171
1070
     4
1070
   271
1070
     2
1070
   272
1070
     2
1070
   274
1070
     4
1070
   278
1070
     0
1070
   289
1070
     3
1070
   371
1070
     0
1070
   372
1070
     0
1002
}
  0
DIMENSION
  5
B8
330
A
100
AcDbEntity
  8
0
  6
Continuous
370
     0
100
AcDbDimension
  2
*D6
 10
-285.0000000000001
 20
134.9999999999996
 30
0.0
 11
-386.202117142892
 21
234.3712565664028
 31
0.0
 70
   164
  1
4-<>
 71
     5
 42
76.35000000000025
  3
Standard
100
AcDbRadialDimension
 15
-322.4496455066401
 25
201.5345515610272
 35
0.0
 40
0.0
1001
ACAD
1000
DSTYLE
1002
{
1070
     3
1000
mm
1070
     4
1000
"
1070
    73
1070
     0
1070
   140
1040
5.0
1070
   143
1040
0.03937
1070
   170
1070
     1
1070
   171
1070
     4
1070
   271
1070
     2
1070
   272
1070
     2
1070
   274
1070
     4
1070
   278
1070
     0
1070
   288
1070
     1
1070
   289
1070
     3
1070
   371
1070
     0
1070
   372
1070
     0
1002
}
  0
DIMENSION
  5
C4
330
A
100
AcDbEntity
  8
0
  6
Continuous
370
     0
100
AcDbDimension
  2
*D7
 10
-284.9999999999997
 20
134.9999999999997
 30
0.0
 11
-397.4058273374106
 21
214.6675258979596
 31
0.0
 70
   164
  1
4-<>
 71
     5
 42
70.00000000000039
  3
Standard
100
AcDbRadialDimension
 15
-330.271198734017
 25
188.3902478471971
 35
0.0
 40
0.0
1001
ACAD
1000
DSTYLE
1002
{
1070
     3
1000
mm
1070
     4
1000
"
1070
    73
1070
     0
1070
   140
1040
5.0
1070
   143
1040
0.03937
1070
   170
1070
     1
1070
   171
1070
     4
1070
   271
1070
     2
1070
   272
1070
     2
1070
   274
1070
     4
1070
   278
1070
     0
1070
   288
1070
     1
1070
   289
1070
     3
1070
   371
1070
     0
1070
   372
1070
     0
1002
}
  0
DIMENSION
  5
D0
330
A
100
AcDbEntity
  8
0
  6
Continuous
370
     0
100
AcDbDimension
  2
*D8
 10
-285.0000000000002
 20
134.9999999999996
 30
0.0
 11
-413.7329958663475
 21
193.2045326648938
 31
0.0
 70
   164
  1
4-<>
 71
     5
 42
63.64999999999998
  3
Standard
100
AcDbRadialDimension
 15
-337.1228426593796
 25
171.5312437935742
 35
0.0
 40
0.0
1001
ACAD
1000
DSTYLE
1002
{
1070
     3
1000
mm
1070
     4
1000
"
1070
    73
1070
     0
1070
   140
1040
5.0
1070
   143
1040
0.03937
1070
   170
1070
     1
1070
   171
1070
     4
1070
   271
1070
     2
1070
   272
1070
     2
1070
   274
1070
     4
1070
   278
1070
     0
1070
   288
1070
     1
1070
   289
1070
     3
1070
   371
1070
     0
1070
   372
1070
     0
1002
}
  0
MTEXT
  5
E6
330
A
100
AcDbEntity
  8
0
  6
Continuous
370
     0
100
AcDbMText
 10
-90.09944847813951
 20
133.3391426849152
 30
0.0
 40
15.0
 41
401.5500405448379
 71
     1
 72
     5
  1
481-1422
 73
     1
 44
1.0
1001
ACAD
1000
ACAD_MTEXT_DEFINED_HEIGHT_BEGIN
1070
    46
1040
0.0
1000
ACAD_MTEXT_DEFINED_HEIGHT_END
  0
MTEXT
  5
ED
330
A
100
AcDbEntity
  8
0
370
     0
100
AcDbMText
 10
-268.5762243472345
 20
34.68566009248525
 30
0.0
 40
10.0
 41
548.0
 71
     1
 72
     5
  3
\A1;Use outside line for reveal mount cut:\PSink rim is {\H0.7x;\S1#4;}" revealed from the countertop opening.\PUse middle line for flushe mount cut:\PSink wall is equal to the edge of countertop opening.\PUse inside line for conceal mount cut:\PSink
  1
 rim is {\H0.7x;\S1#4;}" concealed from the countertop opening.
 73
     1
 44
1.0
1001
ACAD
1000
ACAD_MTEXT_DEFINED_HEIGHT_BEGIN
1070
    46
1040
0.0
1000
ACAD_MTEXT_DEFINED_HEIGHT_END
  0
VIEWPORT
  5
62
330
B
100
AcDbEntity
 67
     1
  8
0
  6
Continuous
370
     0
100
AcDbViewport
 10
5.220833126954206
 20
3.467083570525401
 30
0.0
 40
15.19065221945379
 41
8.746133096049151
 68
     1
 69
     1
 12
5.220833126954206
 22
3.467083570525401
 13
0.0
 23
0.0
 14
10.0
 24
10.0
 15
10.0
 25
10.0
 16
0.0
 26
0.0
 36
1.0
 17
0.0
 27
0.0
 37
0.0
 42
50.0
 43
0.0
 44
0.0
 45
8.746133096049151
 50
0.0
 51
0.0
 72
  1000
 90
    32800
  1

281
     0
 71
     1
 74
     0
110
0.0
120
0.0
130
0.0
111
1.0
121
0.0
131
0.0
112
0.0
122
1.0
132
0.0
 79
     0
146
0.0
170
     0
  0
ENDSEC
  0
SECTION
  2
OBJECTS
  0
DICTIONARY
  5
19
330
0
100
AcDbDictionary
281
     1
  3
ACAD_COLOR
350
5D
  3
ACAD_GROUP
350
1A
  3
ACAD_LAYOUT
350
1E
  3
ACAD_MATERIAL
350
5C
  3
ACAD_MLINESTYLE
350
1B
  3
ACAD_PLOTSETTINGS
350
22
  3
ACAD_PLOTSTYLENAME
350
1F
  3
ACAD_TABLESTYLE
350
DF
  3
ACAD_WIPEOUT_VARS
350
23
  3
AcDbVariableDictionary
350
F2
  3
ASE_INDEX_DICTIONARY
350
EF
  0
DICTIONARY
  5
5D
102
{ACAD_REACTORS
330
19
102
}
330
19
100
AcDbDictionary
281
     1
  0
DICTIONARY
  5
1A
102
{ACAD_REACTORS
330
19
102
}
330
19
100
AcDbDictionary
281
     1
  0
DICTIONARY
  5
1E
102
{ACAD_REACTORS
330
19
102
}
330
19
100
AcDbDictionary
281
     1
  3
Layout1
350
21
  3
Model
350
20
  0
DICTIONARY
  5
5C
102
{ACAD_REACTORS
330
19
102
}
330
19
100
AcDbDictionary
281
     1
  0
DICTIONARY
  5
1B
102
{ACAD_REACTORS
330
19
102
}
330
19
100
AcDbDictionary
281
     1
  3
Standard
350
1C
  0
DICTIONARY
  5
22
102
{ACAD_REACTORS
330
19
102
}
330
19
100
AcDbDictionary
281
     1
  0
ACDBDICTIONARYWDFLT
  5
1F
102
{ACAD_REACTORS
330
19
102
}
330
19
100
AcDbDictionary
281
     1
  3
Normal
350
1D
100
AcDbDictionaryWithDefault
340
1D
  0
DICTIONARY
  5
DF
102
{ACAD_REACTORS
330
19
102
}
330
19
100
AcDbDictionary
281
     1
  3
Standard
350
E0
  0
WIPEOUTVARIABLES
  5
23
330
19
100
AcDbWipeoutVariables
 70
     1
  0
DICTIONARY
  5
F2
102
{ACAD_REACTORS
330
19
102
}
330
19
100
AcDbDictionary
281
     1
  3
CTABLESTYLE
350
F3
  0
DICTIONARY
  5
EF
102
{ACAD_REACTORS
330
19
102
}
330
19
100
AcDbDictionary
281
     1
  3
ASEBlockHierarchyIndexRecord
350
F0
1001
DCO15
1040
1636882570.625
  0
LAYOUT
  5
21
102
{ACAD_REACTORS
330
1E
102
}
330
1E
100
AcDbPlotSettings
  1

  2
HP Deskjet D2300 series
  4
A4
  6

 40
3.174999952316284
 41
4.22274112701416
 42
13.57839965820312
 43
4.138076782226562
 44
296.9683227539062
 45
209.9733276367187
 46
0.0
 47
0.0
 48
0.0
 49
0.0
140
0.0
141
0.0
142
1.0
143
1.0
 70
     0
 72
     0
 73
     0
 74
     0
  7

 75
     0
147
1.0
 76
     0
 77
     2
 78
   300
148
12.7
149
12.7
100
AcDbLayout
  1
Layout1
 70
     0
 71
     1
 10
-0.6249999981226883
 20
-0.6662496506698488
 11
11.0666662520311
 21
7.600416791720652
 12
0.0
 22
0.0
 32
0.0
 14
1.000000000000000E+20
 24
1.000000000000000E+20
 34
1.000000000000000E+20
 15
-1.000000000000000E+20
 25
-1.000000000000000E+20
 35
-1.000000000000000E+20
146
0.0
 13
0.0
 23
0.0
 33
0.0
 16
1.0
 26
0.0
 36
0.0
 17
0.0
 27
1.0
 37
0.0
 76
     0
330
B
331
62
  0
LAYOUT
  5
20
102
{ACAD_REACTORS
330
1E
102
}
330
1E
100
AcDbPlotSettings
  1

  2

  4

  6

 40
0.0
 41
0.0
 42
0.0
 43
0.0
 44
0.0
 45
0.0
 46
0.0
 47
0.0
 48
0.0
 49
0.0
140
0.0
141
0.0
142
1.0
143
1.0
 70
  1024
 72
     0
 73
     0
 74
     0
  7

 75
     0
147
1.0
 76
     0
 77
     2
 78
   300
148
0.0
149
0.0
100
AcDbLayout
  1
Model
 70
     0
 71
     0
 10
0.0
 20
0.0
 11
0.0
 21
0.0
 12
0.0
 22
0.0
 32
0.0
 14
0.0
 24
0.0
 34
0.0
 15
0.0
 25
0.0
 35
0.0
146
0.0
 13
0.0
 23
0.0
 33
0.0
 16
0.0
 26
0.0
 36
0.0
 17
0.0
 27
0.0
 37
0.0
 76
     0
330
A
  0
MLINESTYLE
  5
1C
102
{ACAD_REACTORS
330
1B
102
}
330
1B
100
AcDbMlineStyle
  2
STANDARD
 70
     0
  3

 62
     0
 51
90.0
 52
90.0
 71
     2
 49
0.5
 62
   256
  6
BYLAYER
 49
-0.5
 62
   256
  6
BYLAYER
  0
ACDBPLACEHOLDER
  5
1D
102
{ACAD_REACTORS
330
1F
102
}
330
1F
  0
TABLESTYLE
  5
E0
102
{ACAD_REACTORS
330
DF
102
}
330
DF
100
AcDbTableStyle
  3
Standard
 70
     0
 71
     0
 40
0.06
 41
0.06
280
     0
281
     0
  7
Standard
140
0.18
170
     2
 62
     0
 63
     7
283
     0
274
    -2
284
     1
 64
     0
275
    -2
285
     1
 65
     0
276
    -2
286
     1
 66
     0
277
    -2
287
     1
 67
     0
278
    -2
288
     1
 68
     0
279
    -2
289
     1
 69
     0
  7
Standard
140
0.25
170
     5
 62
     0
 63
     7
283
     0
274
    -2
284
     1
 64
     0
275
    -2
285
     1
 65
     0
276
    -2
286
     1
 66
     0
277
    -2
287
     1
 67
     0
278
    -2
288
     1
 68
     0
279
    -2
289
     1
 69
     0
  7
Standard
140
0.18
170
     5
 62
     0
 63
     7
283
     0
274
    -2
284
     1
 64
     0
275
    -2
285
     1
 65
     0
276
    -2
286
     1
 66
     0
277
    -2
287
     1
 67
     0
278
    -2
288
     1
 68
     0
279
    -2
289
     1
 69
     0
  0
DICTIONARYVAR
  5
F3
102
{ACAD_REACTORS
330
F2
102
}
330
F2
100
DictionaryVariables
280
     0
  1
STANDARD
  0
XRECORD
  5
F0
102
{ACAD_REACTORS
330
EF
102
}
330
EF
100
AcDbXrecord
280
     1
  0
ENDSEC
  0
EOF
