  0
SECTION
  2
HEADER
  9
$ACADVER
  1
AC1021
  9
$ACADMAINTVER
 70
     1
  9
$DWGCODEPAGE
  3
ANSI_936
  9
$LASTSAVEDBY
  1
Administrator
  9
$INSBASE
 10
0.0
 20
0.0
 30
0.0
  9
$EXTMIN
 10
445.4909629999998
 20
43.38325099999993
 30
0.0
  9
$EXTMAX
 10
2764.522291401025
 20
1305.656493039908
 30
0.0
  9
$LIMMIN
 10
-0.5
 20
-0.5
  9
$LIMMAX
 10
5.0
 20
5.0
  9
$ORTHOMODE
 70
     0
  9
$REGENMODE
 70
     1
  9
$FILLMODE
 70
     0
  9
$QTEXTMODE
 70
     0
  9
$MIRRTEXT
 70
     1
  9
$LTSCALE
 40
1.0
  9
$ATTMODE
 70
     1
  9
$TEXTSIZE
 40
0.0
  9
$TRACEWID
 40
0.05
  9
$TEXTSTYLE
  7
Standard
  9
$CLAYER
  8
0
  9
$CELTYPE
  6
Continuous
  9
$CECOLOR
 62
   256
  9
$CELTSCALE
 40
1.0
  9
$DISPSILH
 70
     0
  9
$DIMSCALE
 40
1.0
  9
$DIMASZ
 40
0.18
  9
$DIMEXO
 40
0.0625
  9
$DIMDLI
 40
0.38
  9
$DIMRND
 40
0.0
  9
$DIMDLE
 40
0.0
  9
$DIMEXE
 40
0.18
  9
$DIMTP
 40
0.0
  9
$DIMTM
 40
0.0
  9
$DIMTXT
 40
5.0
  9
$DIMCEN
 40
0.09
  9
$DIMTSZ
 40
0.0
  9
$DIMTOL
 70
     0
  9
$DIMLIM
 70
     0
  9
$DIMTIH
 70
     0
  9
$DIMTOH
 70
     1
  9
$DIMSE1
 70
     0
  9
$DIMSE2
 70
     0
  9
$DIMTAD
 70
     0
  9
$DIMZIN
 70
     0
  9
$DIMBLK
  1

  9
$DIMASO
 70
     1
  9
$DIMSHO
 70
     1
  9
$DIMPOST
  1
mm
  9
$DIMAPOST
  1
"
  9
$DIMALT
 70
     1
  9
$DIMALTD
 70
     4
  9
$DIMALTF
 40
0.03937
  9
$DIMLFAC
 40
1.0
  9
$DIMTOFL
 70
     0
  9
$DIMTVP
 40
0.0
  9
$DIMTIX
 70
     0
  9
$DIMSOXD
 70
     0
  9
$DIMSAH
 70
     0
  9
$DIMBLK1
  1

  9
$DIMBLK2
  1

  9
$DIMSTYLE
  2
Standard
  9
$DIMCLRD
 70
     0
  9
$DIMCLRE
 70
     0
  9
$DIMCLRT
 70
     0
  9
$DIMTFAC
 40
1.0
  9
$DIMGAP
 40
0.09
  9
$DIMJUST
 70
     0
  9
$DIMSD1
 70
     0
  9
$DIMSD2
 70
     0
  9
$DIMTOLJ
 70
     1
  9
$DIMTZIN
 70
     0
  9
$DIMALTZ
 70
     0
  9
$DIMALTTZ
 70
     0
  9
$DIMUPT
 70
     0
  9
$DIMDEC
 70
     2
  9
$DIMTDEC
 70
     2
  9
$DIMALTU
 70
     2
  9
$DIMALTTD
 70
     4
  9
$DIMTXSTY
  7
Standard
  9
$DIMAUNIT
 70
     0
  9
$DIMADEC
 70
     0
  9
$DIMALTRND
 40
0.0
  9
$DIMAZIN
 70
     0
  9
$DIMDSEP
 70
     0
  9
$DIMATFIT
 70
     3
  9
$DIMFRAC
 70
     0
  9
$DIMLDRBLK
  1

  9
$DIMLUNIT
 70
     2
  9
$DIMLWD
 70
     0
  9
$DIMLWE
 70
     0
  9
$DIMTMOVE
 70
     0
  9
$DIMFXL
 40
1.0
  9
$DIMFXLON
 70
     0
  9
$DIMJOGANG
 40
0.7853981633974483
  9
$DIMTFILL
 70
     0
  9
$DIMTFILLCLR
 70
     0
  9
$DIMARCSYM
 70
     0
  9
$DIMLTYPE
  6

  9
$DIMLTEX1
  6

  9
$DIMLTEX2
  6

  9
$LUNITS
 70
     2
  9
$LUPREC
 70
     4
  9
$SKETCHINC
 40
0.1
  9
$FILLETRAD
 40
0.0
  9
$AUNITS
 70
     0
  9
$AUPREC
 70
     0
  9
$MENU
  1
acad
  9
$ELEVATION
 40
0.0
  9
$PELEVATION
 40
0.0
  9
$THICKNESS
 40
0.0
  9
$LIMCHECK
 70
     0
  9
$CHAMFERA
 40
0.0
  9
$CHAMFERB
 40
0.0
  9
$CHAMFERC
 40
0.0
  9
$CHAMFERD
 40
0.0
  9
$SKPOLY
 70
     0
  9
$TDCREATE
 40
2454488.454561088
  9
$TDUCREATE
 40
2454488.121227755
  9
$TDUPDATE
 40
2457824.008945972
  9
$TDUUPDATE
 40
2457823.675612639
  9
$TDINDWG
 40
0.0080164005
  9
$TDUSRTIMER
 40
0.0080163426
  9
$USRTIMER
 70
     1
  9
$ANGBASE
 50
0.0
  9
$ANGDIR
 70
     0
  9
$PDMODE
 70
     0
  9
$PDSIZE
 40
0.0
  9
$PLINEWID
 40
0.0
  9
$SPLFRAME
 70
     0
  9
$SPLINETYPE
 70
     6
  9
$SPLINESEGS
 70
     8
  9
$HANDSEED
  5
1FF
  9
$SURFTAB1
 70
     6
  9
$SURFTAB2
 70
     6
  9
$SURFTYPE
 70
     6
  9
$SURFU
 70
     6
  9
$SURFV
 70
     6
  9
$UCSBASE
  2

  9
$UCSNAME
  2

  9
$UCSORG
 10
0.0
 20
0.0
 30
0.0
  9
$UCSXDIR
 10
1.0
 20
0.0
 30
0.0
  9
$UCSYDIR
 10
0.0
 20
1.0
 30
0.0
  9
$UCSORTHOREF
  2

  9
$UCSORTHOVIEW
 70
     0
  9
$UCSORGTOP
 10
0.0
 20
0.0
 30
0.0
  9
$UCSORGBOTTOM
 10
0.0
 20
0.0
 30
0.0
  9
$UCSORGLEFT
 10
0.0
 20
0.0
 30
0.0
  9
$UCSORGRIGHT
 10
0.0
 20
0.0
 30
0.0
  9
$UCSORGFRONT
 10
0.0
 20
0.0
 30
0.0
  9
$UCSORGBACK
 10
0.0
 20
0.0
 30
0.0
  9
$PUCSBASE
  2

  9
$PUCSNAME
  2

  9
$PUCSORG
 10
0.0
 20
0.0
 30
0.0
  9
$PUCSXDIR
 10
1.0
 20
0.0
 30
0.0
  9
$PUCSYDIR
 10
0.0
 20
1.0
 30
0.0
  9
$PUCSORTHOREF
  2

  9
$PUCSORTHOVIEW
 70
     0
  9
$PUCSORGTOP
 10
0.0
 20
0.0
 30
0.0
  9
$PUCSORGBOTTOM
 10
0.0
 20
0.0
 30
0.0
  9
$PUCSORGLEFT
 10
0.0
 20
0.0
 30
0.0
  9
$PUCSORGRIGHT
 10
0.0
 20
0.0
 30
0.0
  9
$PUCSORGFRONT
 10
0.0
 20
0.0
 30
0.0
  9
$PUCSORGBACK
 10
0.0
 20
0.0
 30
0.0
  9
$USERI1
 70
     0
  9
$USERI2
 70
     0
  9
$USERI3
 70
     0
  9
$USERI4
 70
     0
  9
$USERI5
 70
     0
  9
$USERR1
 40
0.0
  9
$USERR2
 40
0.0
  9
$USERR3
 40
0.0
  9
$USERR4
 40
0.0
  9
$USERR5
 40
0.0
  9
$WORLDVIEW
 70
     1
  9
$SHADEDGE
 70
     3
  9
$SHADEDIF
 70
    70
  9
$TILEMODE
 70
     1
  9
$MAXACTVP
 70
    16
  9
$PINSBASE
 10
0.0
 20
0.0
 30
0.0
  9
$PLIMCHECK
 70
     0
  9
$PEXTMIN
 10
1.000000000000000E+20
 20
1.000000000000000E+20
 30
1.000000000000000E+20
  9
$PEXTMAX
 10
-1.000000000000000E+20
 20
-1.000000000000000E+20
 30
-1.000000000000000E+20
  9
$PLIMMIN
 10
-0.6249999981226883
 20
-0.6662496506698488
  9
$PLIMMAX
 10
11.0666662520311
 20
7.600416791720652
  9
$UNITMODE
 70
     0
  9
$VISRETAIN
 70
     0
  9
$PLINEGEN
 70
     1
  9
$PSLTSCALE
 70
     0
  9
$TREEDEPTH
 70
  3020
  9
$CMLSTYLE
  2
Standard
  9
$CMLJUST
 70
     0
  9
$CMLSCALE
 40
1.0
  9
$PROXYGRAPHICS
 70
     0
  9
$MEASUREMENT
 70
     0
  9
$CELWEIGHT
370
     0
  9
$ENDCAPS
280
     0
  9
$JOINSTYLE
280
     0
  9
$LWDISPLAY
290
     0
  9
$INSUNITS
 70
     0
  9
$HYPERLINKBASE
  1

  9
$STYLESHEET
  1

  9
$XEDIT
290
     1
  9
$CEPSNTYPE
380
     0
  9
$PSTYLEMODE
290
     1
  9
$FINGERPRINTGUID
  2

  9
$VERSIONGUID
  2
{EFA4D118-626B-4315-A57E-71130C59CE68}
  9
$EXTNAMES
290
     1
  9
$PSVPSCALE
 40
0.0
  9
$OLESTARTUP
290
     0
  9
$SORTENTS
280
   127
  9
$INDEXCTL
280
     0
  9
$HIDETEXT
280
     0
  9
$XCLIPFRAME
290
     0
  9
$HALOGAP
280
     0
  9
$OBSCOLOR
 70
   257
  9
$OBSLTYPE
280
     0
  9
$INTERSECTIONDISPLAY
280
     0
  9
$INTERSECTIONCOLOR
 70
   257
  9
$DIMASSOC
280
     1
  9
$PROJECTNAME
  1

  9
$CAMERADISPLAY
290
     0
  9
$LENSLENGTH
 40
50.0
  9
$CAMERAHEIGHT
 40
0.0
  9
$STEPSPERSEC
 40
2.0
  9
$STEPSIZE
 40
6.0
  9
$3DDWFPREC
 40
2.0
  9
$PSOLWIDTH
 40
0.25
  9
$PSOLHEIGHT
 40
4.0
  9
$LOFTANG1
 40
1.570796326794896
  9
$LOFTANG2
 40
1.570796326794896
  9
$LOFTMAG1
 40
0.0
  9
$LOFTMAG2
 40
0.0
  9
$LOFTPARAM
 70
     7
  9
$LOFTNORMALS
280
     1
  9
$LATITUDE
 40
37.795
  9
$LONGITUDE
 40
-122.394
  9
$NORTHDIRECTION
 40
0.0
  9
$TIMEZONE
 70
 -8000
  9
$LIGHTGLYPHDISPLAY
280
     1
  9
$TILEMODELIGHTSYNCH
280
     1
  9
$CMATERIAL
347
1E9
  9
$SOLIDHIST
280
     1
  9
$SHOWHIST
280
     1
  9
$DWFFRAME
280
     2
  9
$DGNFRAME
280
     0
  9
$REALWORLDSCALE
290
     1
  9
$INTERFERECOLOR
 62
     1
  9
$INTERFEREOBJVS
345
1F6
  9
$INTERFEREVPVS
346
1F3
  9
$CSHADOW
280
     0
  9
$SHADOWPLANELOCATION
 40
0.0
  0
ENDSEC
  0
SECTION
  2
CLASSES
  0
CLASS
  1
IMAGE
  2
AcDbRasterImage
  3
ISM
 90
     2175
 91
        0
280
     0
281
     1
  0
CLASS
  1
DICTIONARYVAR
  2
AcDbDictionaryVar
  3
ObjectDBX Classes
 90
        0
 91
        1
280
     0
281
     0
  0
CLASS
  1
RASTERVARIABLES
  2
AcDbRasterVariables
  3
ISM
 90
        0
 91
        0
280
     0
281
     0
  0
CLASS
  1
IMAGEDEF
  2
AcDbRasterImageDef
  3
ISM
 90
        0
 91
        0
280
     0
281
     0
  0
CLASS
  1
IMAGEDEF_REACTOR
  2
AcDbRasterImageDefReactor
  3
ISM
 90
        1
 91
        0
280
     0
281
     0
  0
CLASS
  1
IDBUFFER
  2
AcDbIdBuffer
  3
ObjectDBX Classes
 90
        0
 91
        0
280
     0
281
     0
  0
CLASS
  1
SPATIAL_FILTER
  2
AcDbSpatialFilter
  3
ObjectDBX Classes
 90
        0
 91
        0
280
     0
281
     0
  0
CLASS
  1
SORTENTSTABLE
  2
AcDbSortentsTable
  3
ObjectDBX Classes
 90
        0
 91
        0
280
     0
281
     0
  0
CLASS
  1
LAYER_INDEX
  2
AcDbLayerIndex
  3
ObjectDBX Classes
 90
        0
 91
        0
280
     0
281
     0
  0
CLASS
  1
SPATIAL_INDEX
  2
AcDbSpatialIndex
  3
ObjectDBX Classes
 90
        0
 91
        0
280
     0
281
     0
  0
CLASS
  1
OBJECT_PTR
  2
CAseDLPNTableRecord
  3
ASE-LPNTableRecord
 90
        1
 91
        0
280
     0
281
     0
  0
CLASS
  1
PLOTSETTINGS
  2
AcDbPlotSettings
  3
ObjectDBX Classes
 90
        0
 91
        0
280
     0
281
     0
  0
CLASS
  1
ACDBDICTIONARYWDFLT
  2
AcDbDictionaryWithDefault
  3
ObjectDBX Classes
 90
        0
 91
        1
280
     0
281
     0
  0
CLASS
  1
WIPEOUT
  2
AcDbWipeout
  3
"WipeOut|Product Desc: Object Enabler for WipeOut entity                        |Company: Autodesk, Inc.                        |WEB Address: www.autodesk.com"
 90
     2175
 91
        0
280
     0
281
     1
  0
CLASS
  1
WIPEOUTVARIABLES
  2
AcDbWipeoutVariables
  3
"WipeOut|Product Desc:     WipeOut Dbx Application|Company:          Autodesk, Inc.|WEB Address:      www.autodesk.com"
 90
        0
 91
        1
280
     0
281
     0
  0
CLASS
  1
RTEXT
  2
RText
  3
RText|AutoCAD Express Tool|expresstools@autodesk.com
 90
     1023
 91
        0
280
     0
281
     1
  0
CLASS
  1
ARCALIGNEDTEXT
  2
AcDbArcAlignedText
  3
ATEXT|AutoCAD Express Tool|expresstools@autodesk.com
 90
        0
 91
        0
280
     0
281
     1
  0
CLASS
  1
TABLESTYLE
  2
AcDbTableStyle
  3
ObjectDBX Classes
 90
     4095
 91
        1
280
     0
281
     0
  0
CLASS
  1
MATERIAL
  2
AcDbMaterial
  3
ObjectDBX Classes
 90
     1024
 91
        3
280
     0
281
     0
  0
CLASS
  1
VISUALSTYLE
  2
AcDbVisualStyle
  3
ObjectDBX Classes
 90
     4095
 91
       16
280
     0
281
     0
  0
ENDSEC
  0
SECTION
  2
TABLES
  0
TABLE
  2
VPORT
  5
7
330
0
100
AcDbSymbolTable
 70
    16
  0
VPORT
  5
4C
330
7
100
AcDbSymbolTableRecord
100
AcDbViewportTableRecord
  2
L1
 70
     0
 10
0.0
 20
0.0
 11
1.0
 21
1.0
 12
0.0
 22
0.0
 13
0.0
 23
0.0
 14
1.0
 24
1.0
 15
0.0
 25
0.0
 16
0.0
 26
0.0
 36
1.0
 17
0.0
 27
0.0
 37
0.0
 40
176.5625
 41
0.6885640000000001
 42
50.0
 43
566.2542684027863
 44
-566.2542684027863
 50
0.0
 51
0.0
 71
    16
 72
   100
 73
     1
 74
     1
 75
     0
 76
     0
 77
     0
 78
     0
281
     0
 65
     0
110
0.0
120
0.0
130
0.0
111
1.0
121
0.0
131
0.0
112
0.0
122
1.0
132
0.0
 79
     0
146
0.0
348
1F2
 60
     3
 61
     5
292
     1
282
     1
141
0.0
142
0.0
 63
   250
421
  3355443
  0
VPORT
  5
4D
330
7
100
AcDbSymbolTableRecord
100
AcDbViewportTableRecord
  2
L2
 70
     0
 10
0.0
 20
0.0
 11
0.5
 21
1.0
 12
0.0
 22
0.0
 13
0.0
 23
0.0
 14
1.0
 24
1.0
 15
0.0
 25
0.0
 16
0.0
 26
-1.0
 36
0.0
 17
0.0
 27
0.0
 37
0.0
 40
1132.508536805573
 41
0.6885640000000001
 42
50.0
 43
583.681281086369
 44
-583.681281086369
 50
0.0
 51
0.0
 71
    16
 72
   100
 73
     1
 74
     1
 75
     0
 76
     0
 77
     0
 78
     0
281
     0
 65
     0
110
0.0
120
0.0
130
0.0
111
1.0
121
0.0
131
0.0
112
0.0
122
1.0
132
0.0
 79
     0
146
0.0
348
1F2
 60
     3
 61
     5
292
     1
282
     1
141
0.0
142
0.0
 63
   250
421
  3355443
  0
VPORT
  5
4E
330
7
100
AcDbSymbolTableRecord
100
AcDbViewportTableRecord
  2
L2
 70
     0
 10
0.5
 20
0.0
 11
1.0
 21
1.0
 12
0.0
 22
0.0
 13
0.0
 23
0.0
 14
1.0
 24
1.0
 15
0.0
 25
0.0
 16
1.0
 26
0.0
 36
0.0
 17
0.0
 27
0.0
 37
0.0
 40
1132.508536805573
 41
0.6885640000000001
 42
50.0
 43
573.0946480171817
 44
-573.0946480171817
 50
0.0
 51
0.0
 71
    16
 72
   100
 73
     1
 74
     1
 75
     0
 76
     0
 77
     0
 78
     0
281
     0
 65
     0
110
0.0
120
0.0
130
0.0
111
1.0
121
0.0
131
0.0
112
0.0
122
1.0
132
0.0
 79
     0
146
0.0
348
1F2
 60
     3
 61
     5
292
     1
282
     1
141
0.0
142
0.0
 63
   250
421
  3355443
  0
VPORT
  5
4F
330
7
100
AcDbSymbolTableRecord
100
AcDbViewportTableRecord
  2
L3
 70
     0
 10
0.0
 20
0.5
 11
1.0
 21
1.0
 12
0.0
 22
0.0
 13
0.0
 23
0.0
 14
1.0
 24
1.0
 15
0.0
 25
0.0
 16
0.0
 26
0.0
 36
1.0
 17
0.0
 27
0.0
 37
0.0
 40
176.5625
 41
0.6885640000000001
 42
50.0
 43
566.2542684027863
 44
-566.2542684027863
 50
0.0
 51
0.0
 71
    16
 72
   100
 73
     1
 74
     1
 75
     0
 76
     0
 77
     0
 78
     0
281
     0
 65
     0
110
0.0
120
0.0
130
0.0
111
1.0
121
0.0
131
0.0
112
0.0
122
1.0
132
0.0
 79
     0
146
0.0
348
1F2
 60
     3
 61
     5
292
     1
282
     1
141
0.0
142
0.0
 63
   250
421
  3355443
  0
VPORT
  5
50
330
7
100
AcDbSymbolTableRecord
100
AcDbViewportTableRecord
  2
L3
 70
     0
 10
0.0
 20
0.0
 11
1.0
 21
0.5
 12
0.0
 22
0.0
 13
0.0
 23
0.0
 14
1.0
 24
1.0
 15
0.0
 25
0.0
 16
0.0
 26
-1.0
 36
0.0
 17
0.0
 27
0.0
 37
0.0
 40
1132.508536805573
 41
0.6885640000000001
 42
50.0
 43
583.681281086369
 44
-583.681281086369
 50
0.0
 51
0.0
 71
    16
 72
   100
 73
     1
 74
     1
 75
     0
 76
     0
 77
     0
 78
     0
281
     0
 65
     0
110
0.0
120
0.0
130
0.0
111
1.0
121
0.0
131
0.0
112
0.0
122
1.0
132
0.0
 79
     0
146
0.0
348
1F2
 60
     3
 61
     5
292
     1
282
     1
141
0.0
142
0.0
 63
   250
421
  3355443
  0
VPORT
  5
51
330
7
100
AcDbSymbolTableRecord
100
AcDbViewportTableRecord
  2
L4
 70
     0
 10
0.0
 20
0.5
 11
0.5
 21
1.0
 12
0.0
 22
0.0
 13
0.0
 23
0.0
 14
1.0
 24
1.0
 15
0.0
 25
0.0
 16
0.0
 26
0.0
 36
1.0
 17
0.0
 27
0.0
 37
0.0
 40
176.5625
 41
0.6885640000000001
 42
50.0
 43
566.2542684027863
 44
-566.2542684027863
 50
0.0
 51
0.0
 71
    16
 72
   100
 73
     1
 74
     1
 75
     0
 76
     0
 77
     0
 78
     0
281
     0
 65
     0
110
0.0
120
0.0
130
0.0
111
1.0
121
0.0
131
0.0
112
0.0
122
1.0
132
0.0
 79
     0
146
0.0
348
1F2
 60
     3
 61
     5
292
     1
282
     1
141
0.0
142
0.0
 63
   250
421
  3355443
  0
VPORT
  5
52
330
7
100
AcDbSymbolTableRecord
100
AcDbViewportTableRecord
  2
L4
 70
     0
 10
0.0
 20
0.0
 11
0.5
 21
0.5
 12
0.0
 22
0.0
 13
0.0
 23
0.0
 14
1.0
 24
1.0
 15
0.0
 25
0.0
 16
0.0
 26
-1.0
 36
0.0
 17
0.0
 27
0.0
 37
0.0
 40
1132.508536805573
 41
0.6885640000000001
 42
50.0
 43
583.681281086369
 44
-583.681281086369
 50
0.0
 51
0.0
 71
    16
 72
   100
 73
     1
 74
     1
 75
     0
 76
     0
 77
     0
 78
     0
281
     0
 65
     0
110
0.0
120
0.0
130
0.0
111
1.0
121
0.0
131
0.0
112
0.0
122
1.0
132
0.0
 79
     0
146
0.0
348
1F2
 60
     3
 61
     5
292
     1
282
     1
141
0.0
142
0.0
 63
   250
421
  3355443
  0
VPORT
  5
53
330
7
100
AcDbSymbolTableRecord
100
AcDbViewportTableRecord
  2
L4
 70
     0
 10
0.5
 20
0.0
 11
1.0
 21
0.5
 12
0.0
 22
0.0
 13
0.0
 23
0.0
 14
1.0
 24
1.0
 15
0.0
 25
0.0
 16
1.0
 26
0.0
 36
0.0
 17
0.0
 27
0.0
 37
0.0
 40
1132.508536805573
 41
0.6885640000000001
 42
50.0
 43
573.0946480171817
 44
-573.0946480171817
 50
0.0
 51
0.0
 71
    16
 72
   100
 73
     1
 74
     1
 75
     0
 76
     0
 77
     0
 78
     0
281
     0
 65
     0
110
0.0
120
0.0
130
0.0
111
1.0
121
0.0
131
0.0
112
0.0
122
1.0
132
0.0
 79
     0
146
0.0
348
1F2
 60
     3
 61
     5
292
     1
282
     1
141
0.0
142
0.0
 63
   250
421
  3355443
  0
VPORT
  5
54
330
7
100
AcDbSymbolTableRecord
100
AcDbViewportTableRecord
  2
L4
 70
     0
 10
0.5
 20
0.5
 11
1.0
 21
1.0
 12
0.0
 22
0.0
 13
0.0
 23
0.0
 14
1.0
 24
1.0
 15
0.0
 25
0.0
 16
0.577350269189626
 26
-0.577350269189626
 36
0.577350269189626
 17
0.0
 27
0.0
 37
0.0
 40
1112.355984195819
 41
0.6885640000000001
 42
50.0
 43
579.4376874186675
 44
-579.4376874186675
 50
0.0
 51
0.0
 71
    16
 72
   100
 73
     1
 74
     1
 75
     0
 76
     0
 77
     0
 78
     0
281
     0
 65
     0
110
0.0
120
0.0
130
0.0
111
1.0
121
0.0
131
0.0
112
0.0
122
1.0
132
0.0
 79
     0
146
0.0
348
1F2
 60
     3
 61
     5
292
     1
282
     1
141
0.0
142
0.0
 63
   250
421
  3355443
  0
VPORT
  5
55
330
7
100
AcDbSymbolTableRecord
100
AcDbViewportTableRecord
  2
L6
 70
     0
 10
0.0
 20
0.5
 11
0.3333333333333334
 21
1.0
 12
0.0
 22
0.0
 13
0.0
 23
0.0
 14
1.0
 24
1.0
 15
0.0
 25
0.0
 16
0.7188730927569435
 26
-0.5850486126764432
 36
0.3754192287502549
 17
0.0
 27
0.0
 37
0.0
 40
1173.951112383371
 41
0.6885640000000001
 42
50.0
 43
607.8240479537007
 44
-607.8240479537007
 50
0.0
 51
0.0
 71
    16
 72
   100
 73
     1
 74
     1
 75
     0
 76
     0
 77
     0
 78
     0
281
     0
 65
     0
110
0.0
120
0.0
130
0.0
111
1.0
121
0.0
131
0.0
112
0.0
122
1.0
132
0.0
 79
     0
146
0.0
348
1F2
 60
     3
 61
     5
292
     1
282
     1
141
0.0
142
0.0
 63
   250
421
  3355443
  0
VPORT
  5
56
330
7
100
AcDbSymbolTableRecord
100
AcDbViewportTableRecord
  2
L6
 70
     0
 10
0.0
 20
0.0
 11
0.3333333333333334
 21
0.5
 12
0.0
 22
0.0
 13
0.0
 23
0.0
 14
1.0
 24
1.0
 15
0.0
 25
0.0
 16
-1.0
 26
0.0
 36
0.0
 17
0.0
 27
0.0
 37
0.0
 40
1132.508536805573
 41
0.6885640000000001
 42
50.0
 43
573.0946480171817
 44
-573.0946480171817
 50
0.0
 51
0.0
 71
    16
 72
   100
 73
     1
 74
     1
 75
     0
 76
     0
 77
     0
 78
     0
281
     0
 65
     0
110
0.0
120
0.0
130
0.0
111
1.0
121
0.0
131
0.0
112
0.0
122
1.0
132
0.0
 79
     0
146
0.0
348
1F2
 60
     3
 61
     5
292
     1
282
     1
141
0.0
142
0.0
 63
   250
421
  3355443
  0
VPORT
  5
57
330
7
100
AcDbSymbolTableRecord
100
AcDbViewportTableRecord
  2
L6
 70
     0
 10
0.3333333333333334
 20
0.5
 11
0.6666666666666666
 21
1.0
 12
0.0
 22
0.0
 13
0.0
 23
0.0
 14
1.0
 24
1.0
 15
0.0
 25
0.0
 16
0.0
 26
0.0
 36
1.0
 17
0.0
 27
0.0
 37
0.0
 40
176.5625
 41
0.6885640000000001
 42
50.0
 43
566.2542684027863
 44
-566.2542684027863
 50
0.0
 51
0.0
 71
    16
 72
   100
 73
     1
 74
     1
 75
     0
 76
     0
 77
     0
 78
     0
281
     0
 65
     0
110
0.0
120
0.0
130
0.0
111
1.0
121
0.0
131
0.0
112
0.0
122
1.0
132
0.0
 79
     0
146
0.0
348
1F2
 60
     3
 61
     5
292
     1
282
     1
141
0.0
142
0.0
 63
   250
421
  3355443
  0
VPORT
  5
58
330
7
100
AcDbSymbolTableRecord
100
AcDbViewportTableRecord
  2
L6
 70
     0
 10
0.3333333333333334
 20
0.0
 11
0.6666666666666666
 21
0.5
 12
0.0
 22
0.0
 13
0.0
 23
0.0
 14
1.0
 24
1.0
 15
0.0
 25
0.0
 16
0.0
 26
-1.0
 36
0.0
 17
0.0
 27
0.0
 37
0.0
 40
1132.508536805573
 41
0.6885640000000001
 42
50.0
 43
583.681281086369
 44
-583.681281086369
 50
0.0
 51
0.0
 71
    16
 72
   100
 73
     1
 74
     1
 75
     0
 76
     0
 77
     0
 78
     0
281
     0
 65
     0
110
0.0
120
0.0
130
0.0
111
1.0
121
0.0
131
0.0
112
0.0
122
1.0
132
0.0
 79
     0
146
0.0
348
1F2
 60
     3
 61
     5
292
     1
282
     1
141
0.0
142
0.0
 63
   250
421
  3355443
  0
VPORT
  5
59
330
7
100
AcDbSymbolTableRecord
100
AcDbViewportTableRecord
  2
L6
 70
     0
 10
0.6666666666666666
 20
0.5
 11
1.0
 21
1.0
 12
0.0
 22
0.0
 13
0.0
 23
0.0
 14
1.0
 24
1.0
 15
0.0
 25
0.0
 16
0.577350269189626
 26
-0.577350269189626
 36
0.577350269189626
 17
0.0
 27
0.0
 37
0.0
 40
1112.355984195819
 41
0.6885640000000001
 42
50.0
 43
579.4376874186675
 44
-579.4376874186675
 50
0.0
 51
0.0
 71
    16
 72
   100
 73
     1
 74
     1
 75
     0
 76
     0
 77
     0
 78
     0
281
     0
 65
     0
110
0.0
120
0.0
130
0.0
111
1.0
121
0.0
131
0.0
112
0.0
122
1.0
132
0.0
 79
     0
146
0.0
348
1F2
 60
     3
 61
     5
292
     1
282
     1
141
0.0
142
0.0
 63
   250
421
  3355443
  0
VPORT
  5
5A
330
7
100
AcDbSymbolTableRecord
100
AcDbViewportTableRecord
  2
L6
 70
     0
 10
0.6666666666666666
 20
0.0
 11
1.0
 21
0.5
 12
0.0
 22
0.0
 13
0.0
 23
0.0
 14
1.0
 24
1.0
 15
0.0
 25
0.0
 16
1.0
 26
0.0
 36
0.0
 17
0.0
 27
0.0
 37
0.0
 40
1132.508536805573
 41
0.6885640000000001
 42
50.0
 43
573.0946480171817
 44
-573.0946480171817
 50
0.0
 51
0.0
 71
    16
 72
   100
 73
     1
 74
     1
 75
     0
 76
     0
 77
     0
 78
     0
281
     0
 65
     0
110
0.0
120
0.0
130
0.0
111
1.0
121
0.0
131
0.0
112
0.0
122
1.0
132
0.0
 79
     0
146
0.0
348
1F2
 60
     3
 61
     5
292
     1
282
     1
141
0.0
142
0.0
 63
   250
421
  3355443
  0
VPORT
  5
1E4
330
7
100
AcDbSymbolTableRecord
100
AcDbViewportTableRecord
  2
*Active
 70
     0
 10
0.0
 20
0.0
 11
1.0
 21
1.0
 12
2810.226492903981
 22
1073.969917139795
 13
0.0
 23
0.0
 14
1.0
 24
1.0
 15
0.0
 25
0.0
 16
0.0
 26
0.0
 36
1.0
 17
0.0
 27
0.0
 37
0.0
 40
880.5612922049752
 41
2.738095238095238
 42
50.0
 43
566.2542684027863
 44
-566.2542684027863
 50
0.0
 51
0.0
 71
    16
 72
   100
 73
     1
 74
     1
 75
     0
 76
     0
 77
     0
 78
     0
281
     0
 65
     0
110
0.0
120
0.0
130
0.0
111
1.0
121
0.0
131
0.0
112
0.0
122
1.0
132
0.0
 79
     0
146
0.0
348
1F2
 60
     3
 61
     5
292
     1
282
     1
141
0.0
142
0.0
 63
   250
421
  3355443
  0
ENDTAB
  0
TABLE
  2
LTYPE
  5
4
330
0
100
AcDbSymbolTable
 70
     7
  0
LTYPE
  5
11
330
4
100
AcDbSymbolTableRecord
100
AcDbLinetypeTableRecord
  2
ByBlock
 70
     0
  3

 72
    65
 73
     0
 40
0.0
  0
LTYPE
  5
12
330
4
100
AcDbSymbolTableRecord
100
AcDbLinetypeTableRecord
  2
ByLayer
 70
     0
  3

 72
    65
 73
     0
 40
0.0
  0
LTYPE
  5
13
330
4
100
AcDbSymbolTableRecord
100
AcDbLinetypeTableRecord
  2
Continuous
 70
     0
  3
Solid line
 72
    65
 73
     0
 40
0.0
  0
LTYPE
  5
24
330
4
100
AcDbSymbolTableRecord
100
AcDbLinetypeTableRecord
  2
DASHED
 70
     0
  3
__ __ __ __ __ __ __ __ __
 72
    65
 73
     2
 40
0.75
 49
0.5
 74
     0
 49
-0.25
 74
     0
  0
LTYPE
  5
25
330
4
100
AcDbSymbolTableRecord
100
AcDbLinetypeTableRecord
  2
HIDDEN
 70
     0
  3
_ _ _ _ _ _ _ _ _ _ _ _ _ _ _
 72
    65
 73
     2
 40
0.5
 49
0.25
 74
     0
 49
-0.25
 74
     0
  0
LTYPE
  5
26
330
4
100
AcDbSymbolTableRecord
100
AcDbLinetypeTableRecord
  2
PHANTOM
 70
     0
  3
____ _ _ ____ _ _ _____ _ _ ____
 72
    65
 73
     6
 40
2.5
 49
1.25
 74
     0
 49
-0.25
 74
     0
 49
0.25
 74
     0
 49
-0.25
 74
     0
 49
0.25
 74
     0
 49
-0.25
 74
     0
  0
LTYPE
  5
27
330
4
100
AcDbSymbolTableRecord
100
AcDbLinetypeTableRecord
  2
CENTER
 70
     0
  3
____ _ ____ _ ____ _ ____
 72
    65
 73
     4
 40
2.0
 49
1.25
 74
     0
 49
-0.25
 74
     0
 49
0.25
 74
     0
 49
-0.25
 74
     0
  0
LTYPE
  5
28
330
4
100
AcDbSymbolTableRecord
100
AcDbLinetypeTableRecord
  2
DOT
 70
     0
  3
.........................
 72
    65
 73
     2
 40
0.25
 49
0.0
 74
     0
 49
-0.25
 74
     0
  0
LTYPE
  5
29
330
4
100
AcDbSymbolTableRecord
100
AcDbLinetypeTableRecord
  2
DASHDOT
 70
     0
  3
_._._._._._._._._._._._._._._._.
 72
    65
 73
     4
 40
1.0
 49
0.5
 74
     0
 49
-0.25
 74
     0
 49
0.0
 74
     0
 49
-0.25
 74
     0
  0
ENDTAB
  0
TABLE
  2
LAYER
  5
2
330
0
100
AcDbSymbolTable
 70
     3
  0
LAYER
  5
14
330
2
100
AcDbSymbolTableRecord
100
AcDbLayerTableRecord
  2
0
 70
     0
 62
     7
  6
Continuous
370
    -3
390
1D
347
1EB
  0
LAYER
  5
2B
330
2
100
AcDbSymbolTableRecord
100
AcDbLayerTableRecord
  2
1
 70
     0
 62
     7
  6
Continuous
370
    -3
390
1D
347
1EB
  0
LAYER
  5
64
330
2
100
AcDbSymbolTableRecord
100
AcDbLayerTableRecord
  2
Defpoints
 70
     0
 62
     7
  6
Continuous
290
     0
370
    -3
390
1D
347
1EB
  0
ENDTAB
  0
TABLE
  2
STYLE
  5
3
330
0
100
AcDbSymbolTable
 70
     1
  0
STYLE
  5
17
330
3
100
AcDbSymbolTableRecord
100
AcDbTextStyleTableRecord
  2
Standard
 70
     0
 40
0.0
 41
1.0
 50
0.0
 71
     0
 42
0.0
  3
txt
  4

  0
ENDTAB
  0
TABLE
  2
VIEW
  5
5
330
0
100
AcDbSymbolTable
 70
     8
  0
VIEW
  5
43
330
5
100
AcDbSymbolTableRecord
100
AcDbViewTableRecord
  2
TOP
 70
     0
 40
176.5625
 10
0.0
 20
0.0
 41
283.125
 11
0.0
 21
0.0
 31
1.0
 12
0.0
 22
0.0
 32
0.0
 42
50.0
 43
566.2542684027863
 44
-566.2542684027863
 50
0.0
 71
    16
281
     0
 72
     0
 73
     0
348
1F2
  0
VIEW
  5
44
330
5
100
AcDbSymbolTableRecord
100
AcDbViewTableRecord
  2
FRONT
 70
     0
 40
1132.508536805573
 10
0.0
 20
0.0
 41
283.125
 11
0.0
 21
-1.0
 31
0.0
 12
0.0
 22
0.0
 32
0.0
 42
50.0
 43
583.681281086369
 44
-583.681281086369
 50
0.0
 71
    16
281
     0
 72
     0
 73
     0
348
1F2
  0
VIEW
  5
45
330
5
100
AcDbSymbolTableRecord
100
AcDbViewTableRecord
  2
RIGHT
 70
     0
 40
1132.508536805573
 10
0.0
 20
0.0
 41
176.5625
 11
1.0
 21
0.0
 31
0.0
 12
0.0
 22
0.0
 32
0.0
 42
50.0
 43
573.0946480171817
 44
-573.0946480171817
 50
0.0
 71
    16
281
     0
 72
     0
 73
     0
348
1F2
  0
VIEW
  5
46
330
5
100
AcDbSymbolTableRecord
100
AcDbViewTableRecord
  2
BACK
 70
     0
 40
1132.508536805573
 10
0.0
 20
0.0
 41
283.125
 11
0.0
 21
1.0
 31
0.0
 12
0.0
 22
0.0
 32
0.0
 42
50.0
 43
583.681281086369
 44
-583.681281086369
 50
0.0
 71
    16
281
     0
 72
     0
 73
     0
348
1F2
  0
VIEW
  5
47
330
5
100
AcDbSymbolTableRecord
100
AcDbViewTableRecord
  2
BOTTOM
 70
     0
 40
176.5625
 10
0.0
 20
0.0
 41
283.125
 11
0.0
 21
0.0
 31
-1.0
 12
0.0
 22
0.0
 32
0.0
 42
50.0
 43
566.2542684027863
 44
-566.2542684027863
 50
180.0
 71
    16
281
     0
 72
     0
 73
     0
348
1F2
  0
VIEW
  5
48
330
5
100
AcDbSymbolTableRecord
100
AcDbViewTableRecord
  2
LEFT
 70
     0
 40
1132.508536805573
 10
0.0
 20
0.0
 41
176.5625
 11
-1.0
 21
0.0
 31
0.0
 12
0.0
 22
0.0
 32
0.0
 42
50.0
 43
573.0946480171817
 44
-573.0946480171817
 50
0.0
 71
    16
281
     0
 72
     0
 73
     0
348
1F2
  0
VIEW
  5
49
330
5
100
AcDbSymbolTableRecord
100
AcDbViewTableRecord
  2
TFR-ISO
 70
     0
 40
1112.355984195819
 10
0.0
 20
0.0
 41
325.048148476691
 11
0.577350269189626
 21
-0.577350269189626
 31
0.577350269189626
 12
0.0
 22
0.0
 32
0.0
 42
50.0
 43
579.4376874186675
 44
-579.4376874186675
 50
0.0
 71
    16
281
     0
 72
     0
 73
     0
348
1F2
  0
VIEW
  5
4A
330
5
100
AcDbSymbolTableRecord
100
AcDbViewTableRecord
  2
TFR-TRI
 70
     0
 40
1173.951112383371
 10
0.0
 20
0.0
 41
315.6565836746264
 11
0.7188730927569435
 21
-0.5850486126764432
 31
0.3754192287502549
 12
0.0
 22
0.0
 32
0.0
 42
50.0
 43
607.8240479537007
 44
-607.8240479537007
 50
0.0
 71
    16
281
     0
 72
     0
 73
     0
348
1F2
  0
ENDTAB
  0
TABLE
  2
UCS
  5
6
330
0
100
AcDbSymbolTable
 70
     0
  0
ENDTAB
  0
TABLE
  2
APPID
  5
8
330
0
100
AcDbSymbolTable
 70
     2
  0
APPID
  5
16
330
8
100
AcDbSymbolTableRecord
100
AcDbRegAppTableRecord
  2
ACAD
 70
     0
  0
APPID
  5
1C8
330
8
100
AcDbSymbolTableRecord
100
AcDbRegAppTableRecord
  2
DCO15
 70
     0
  0
ENDTAB
  0
TABLE
  2
DIMSTYLE
  5
9
330
0
100
AcDbSymbolTable
 70
     1
100
AcDbDimStyleTable
 71
     1
340
18
  0
DIMSTYLE
105
18
102
{ACAD_REACTORS
330
80
330
8E
330
9C
330
AA
330
B8
330
C6
330
D4
330
DF
330
EA
330
F5
330
101
330
10D
330
119
330
125
330
131
102
}
330
9
100
AcDbSymbolTableRecord
100
AcDbDimStyleTableRecord
  2
Standard
 70
     0
289
     0
340
17
  0
ENDTAB
  0
TABLE
  2
BLOCK_RECORD
  5
1
330
0
100
AcDbSymbolTable
 70
    15
  0
BLOCK_RECORD
  5
A
330
1
100
AcDbSymbolTableRecord
100
AcDbBlockTableRecord
  2
*MODEL_SPACE
340
20
 70
     0
280
     1
281
     0
  0
BLOCK_RECORD
  5
B
330
1
100
AcDbSymbolTableRecord
100
AcDbBlockTableRecord
  2
*PAPER_SPACE
340
21
 70
     0
280
     1
281
     0
  0
BLOCK_RECORD
  5
81
330
1
100
AcDbSymbolTableRecord
100
AcDbBlockTableRecord
  2
*D0
340
0
 70
     0
280
     1
281
     0
  0
BLOCK_RECORD
  5
8F
330
1
100
AcDbSymbolTableRecord
100
AcDbBlockTableRecord
  2
*D1
340
0
 70
     0
280
     1
281
     0
  0
BLOCK_RECORD
  5
9D
330
1
100
AcDbSymbolTableRecord
100
AcDbBlockTableRecord
  2
*D2
340
0
 70
     0
280
     1
281
     0
  0
BLOCK_RECORD
  5
AB
330
1
100
AcDbSymbolTableRecord
100
AcDbBlockTableRecord
  2
*D3
340
0
 70
     0
280
     1
281
     0
  0
BLOCK_RECORD
  5
B9
330
1
100
AcDbSymbolTableRecord
100
AcDbBlockTableRecord
  2
*D4
340
0
 70
     0
280
     1
281
     0
  0
BLOCK_RECORD
  5
C7
330
1
100
AcDbSymbolTableRecord
100
AcDbBlockTableRecord
  2
*D5
340
0
 70
     0
280
     1
281
     0
  0
BLOCK_RECORD
  5
D5
330
1
100
AcDbSymbolTableRecord
100
AcDbBlockTableRecord
  2
*D6
340
0
 70
     0
280
     1
281
     0
  0
BLOCK_RECORD
  5
E0
330
1
100
AcDbSymbolTableRecord
100
AcDbBlockTableRecord
  2
*D7
340
0
 70
     0
280
     1
281
     0
  0
BLOCK_RECORD
  5
EB
330
1
100
AcDbSymbolTableRecord
100
AcDbBlockTableRecord
  2
*D8
340
0
 70
     0
280
     1
281
     0
  0
BLOCK_RECORD
  5
F6
330
1
100
AcDbSymbolTableRecord
100
AcDbBlockTableRecord
  2
*D9
340
0
 70
     0
280
     1
281
     0
  0
BLOCK_RECORD
  5
102
330
1
100
AcDbSymbolTableRecord
100
AcDbBlockTableRecord
  2
*D10
340
0
 70
     0
280
     1
281
     0
  0
BLOCK_RECORD
  5
10E
330
1
100
AcDbSymbolTableRecord
100
AcDbBlockTableRecord
  2
*D11
340
0
 70
     0
280
     1
281
     0
  0
BLOCK_RECORD
  5
11A
330
1
100
AcDbSymbolTableRecord
100
AcDbBlockTableRecord
  2
*D12
340
0
 70
     0
280
     1
281
     0
  0
BLOCK_RECORD
  5
126
330
1
100
AcDbSymbolTableRecord
100
AcDbBlockTableRecord
  2
*D13
340
0
 70
     0
280
     1
281
     0
  0
BLOCK_RECORD
  5
132
330
1
100
AcDbSymbolTableRecord
100
AcDbBlockTableRecord
  2
*D14
340
0
 70
     0
280
     1
281
     0
  0
ENDTAB
  0
ENDSEC
  0
SECTION
  2
BLOCKS
  0
BLOCK
  5
D
330
A
100
AcDbEntity
  8
0
100
AcDbBlockBegin
  2
*MODEL_SPACE
 70
     0
 10
0.0
 20
0.0
 30
0.0
  3
*MODEL_SPACE
  1

  0
ENDBLK
  5
E
330
A
100
AcDbEntity
  8
0
100
AcDbBlockEnd
  0
BLOCK
  5
F
330
B
100
AcDbEntity
 67
     1
  8
0
100
AcDbBlockBegin
  2
*PAPER_SPACE
 70
     0
 10
0.0
 20
0.0
 30
0.0
  3
*PAPER_SPACE
  1

  0
ENDBLK
  5
10
330
B
100
AcDbEntity
 67
     1
  8
0
100
AcDbBlockEnd
  0
BLOCK
  5
8C
330
81
100
AcDbEntity
  8
0
370
     0
100
AcDbBlockBegin
  2
*D0
 70
     1
 10
0.0
 20
0.0
 30
0.0
  3
*D0
  1

  0
LINE
  5
1BE
330
81
100
AcDbEntity
  8
0
  6
Continuous
 62
     0
370
     0
100
AcDbLine
 10
2085.549227118354
 20
1241.123185077316
 30
0.0
 11
1887.437454338369
 21
1241.123185077316
 31
0.0
  0
LINE
  5
1BF
330
81
100
AcDbEntity
  8
0
  6
Continuous
 62
     0
370
     0
100
AcDbLine
 10
2085.549289062939
 20
833.8233329432382
 30
0.0
 11
1887.437454338369
 21
833.8233329432382
 31
0.0
  0
LINE
  5
1C0
330
81
100
AcDbEntity
  8
0
  6
Continuous
 62
     0
370
     0
100
AcDbLine
 10
1887.617454338369
 20
1240.943185077316
 30
0.0
 11
1887.617454338369
 21
1076.313259010277
 31
0.0
  0
LINE
  5
1C1
330
81
100
AcDbEntity
  8
0
  6
Continuous
 62
     0
370
     0
100
AcDbLine
 10
1887.617454338369
 20
834.0033329432381
 30
0.0
 11
1887.617454338369
 21
998.6332590102772
 31
0.0
  0
SOLID
  5
1C2
330
81
100
AcDbEntity
  8
0
  6
Continuous
 62
     0
370
     0
100
AcDbTrace
 10
1887.587454338369
 20
1240.943185077316
 30
0.0
 11
1887.647454338369
 21
1240.943185077316
 31
0.0
 12
1887.617454338369
 22
1241.123185077316
 32
0.0
 13
1887.617454338369
 23
1241.123185077316
 33
0.0
  0
SOLID
  5
1C3
330
81
100
AcDbEntity
  8
0
  6
Continuous
 62
     0
370
     0
100
AcDbTrace
 10
1887.587454338369
 20
834.0033329432381
 30
0.0
 11
1887.647454338369
 21
834.0033329432381
 31
0.0
 12
1887.617454338369
 22
833.8233329432382
 32
0.0
 13
1887.617454338369
 23
833.8233329432382
 33
0.0
  0
MTEXT
  5
1C4
330
81
100
AcDbEntity
  8
0
  6
Continuous
 62
     0
370
     0
100
AcDbMText
 10
1887.617454338369
 20
1037.473259010277
 30
0.0
 40
5.0
 41
0.0
 46
0.0
 71
     5
 72
     1
  1
\A1;407.30mm [16.0354"]
 11
0.0000000000000001
 21
1.0
 31
0.0
 73
     1
 44
1.0
  0
POINT
  5
1C5
330
81
100
AcDbEntity
  8
Defpoints
  6
Continuous
 62
     0
370
     0
100
AcDbPoint
 10
2085.611727118354
 20
1241.123185077316
 30
0.0
  0
POINT
  5
1C6
330
81
100
AcDbEntity
  8
Defpoints
  6
Continuous
 62
     0
370
     0
100
AcDbPoint
 10
2085.611789062939
 20
833.8233329432382
 30
0.0
  0
POINT
  5
1C7
330
81
100
AcDbEntity
  8
Defpoints
  6
Continuous
 62
     0
370
     0
100
AcDbPoint
 10
1887.617454338369
 20
833.8233329432382
 30
0.0
  0
ENDBLK
  5
8D
330
81
100
AcDbEntity
  8
0
370
     0
100
AcDbBlockEnd
  0
BLOCK
  5
9A
330
8F
100
AcDbEntity
  8
0
370
     0
100
AcDbBlockBegin
  2
*D1
 70
     1
 10
0.0
 20
0.0
 30
0.0
  3
*D1
  1

  0
LINE
  5
1B4
330
8F
100
AcDbEntity
  8
0
  6
Continuous
 62
     0
370
     0
100
AcDbLine
 10
2085.551368677524
 20
827.4733332837136
 30
0.0
 11
1874.072337183587
 21
827.4733332837136
 31
0.0
  0
LINE
  5
1B5
330
8F
100
AcDbEntity
  8
0
  6
Continuous
 62
     0
370
     0
100
AcDbLine
 10
2085.551305636236
 20
1247.473184737203
 30
0.0
 11
1874.072337183587
 21
1247.473184737203
 31
0.0
  0
LINE
  5
1B6
330
8F
100
AcDbEntity
  8
0
  6
Continuous
 62
     0
370
     0
100
AcDbLine
 10
1874.252337183587
 20
827.6533332837136
 30
0.0
 11
1874.252337183587
 21
998.6332590104582
 31
0.0
  0
LINE
  5
1B7
330
8F
100
AcDbEntity
  8
0
  6
Continuous
 62
     0
370
     0
100
AcDbLine
 10
1874.252337183587
 20
1247.293184737203
 30
0.0
 11
1874.252337183587
 21
1076.313259010458
 31
0.0
  0
SOLID
  5
1B8
330
8F
100
AcDbEntity
  8
0
  6
Continuous
 62
     0
370
     0
100
AcDbTrace
 10
1874.222337183587
 20
827.6533332837136
 30
0.0
 11
1874.282337183587
 21
827.6533332837136
 31
0.0
 12
1874.252337183587
 22
827.4733332837136
 32
0.0
 13
1874.252337183587
 23
827.4733332837136
 33
0.0
  0
SOLID
  5
1B9
330
8F
100
AcDbEntity
  8
0
  6
Continuous
 62
     0
370
     0
100
AcDbTrace
 10
1874.222337183587
 20
1247.293184737203
 30
0.0
 11
1874.282337183587
 21
1247.293184737203
 31
0.0
 12
1874.252337183587
 22
1247.473184737203
 32
0.0
 13
1874.252337183587
 23
1247.473184737203
 33
0.0
  0
MTEXT
  5
1BA
330
8F
100
AcDbEntity
  8
0
  6
Continuous
 62
     0
370
     0
100
AcDbMText
 10
1874.252337183587
 20
1037.473259010458
 30
0.0
 40
5.0
 41
0.0
 46
0.0
 71
     5
 72
     1
  1
\A1;420.00mm [16.5354"]
 11
0.0000000000000001
 21
1.0
 31
0.0
 73
     1
 44
1.0
  0
POINT
  5
1BB
330
8F
100
AcDbEntity
  8
Defpoints
  6
Continuous
 62
     0
370
     0
100
AcDbPoint
 10
2085.613868677524
 20
827.4733332837136
 30
0.0
  0
POINT
  5
1BC
330
8F
100
AcDbEntity
  8
Defpoints
  6
Continuous
 62
     0
370
     0
100
AcDbPoint
 10
2085.613805636236
 20
1247.473184737203
 30
0.0
  0
POINT
  5
1BD
330
8F
100
AcDbEntity
  8
Defpoints
  6
Continuous
 62
     0
370
     0
100
AcDbPoint
 10
1874.252337183587
 20
1247.473184737203
 30
0.0
  0
ENDBLK
  5
9B
330
8F
100
AcDbEntity
  8
0
370
     0
100
AcDbBlockEnd
  0
BLOCK
  5
A8
330
9D
100
AcDbEntity
  8
0
370
     0
100
AcDbBlockBegin
  2
*D2
 70
     1
 10
0.0
 20
0.0
 30
0.0
  3
*D2
  1

  0
LINE
  5
1AA
330
9D
100
AcDbEntity
  8
0
  6
Continuous
 62
     0
370
     0
100
AcDbLine
 10
2085.55350663791
 20
821.1233336435507
 30
0.0
 11
1856.779090889149
 21
821.1233336435507
 31
0.0
  0
LINE
  5
1AB
330
9D
100
AcDbEntity
  8
0
  6
Continuous
 62
     0
370
     0
100
AcDbLine
 10
2085.55350663791
 20
1253.823184378658
 30
0.0
 11
1856.779090889149
 21
1253.823184378658
 31
0.0
  0
LINE
  5
1AC
330
9D
100
AcDbEntity
  8
0
  6
Continuous
 62
     0
370
     0
100
AcDbLine
 10
1856.959090889149
 20
821.3033336435506
 30
0.0
 11
1856.959090889149
 21
998.2165923444377
 31
0.0
  0
LINE
  5
1AD
330
9D
100
AcDbEntity
  8
0
  6
Continuous
 62
     0
370
     0
100
AcDbLine
 10
1856.959090889149
 20
1253.643184378658
 30
0.0
 11
1856.959090889149
 21
1076.729925677771
 31
0.0
  0
SOLID
  5
1AE
330
9D
100
AcDbEntity
  8
0
  6
Continuous
 62
     0
370
     0
100
AcDbTrace
 10
1856.929090889149
 20
821.3033336435506
 30
0.0
 11
1856.989090889149
 21
821.3033336435506
 31
0.0
 12
1856.959090889149
 22
821.1233336435507
 32
0.0
 13
1856.959090889149
 23
821.1233336435507
 33
0.0
  0
SOLID
  5
1AF
330
9D
100
AcDbEntity
  8
0
  6
Continuous
 62
     0
370
     0
100
AcDbTrace
 10
1856.929090889149
 20
1253.643184378658
 30
0.0
 11
1856.989090889149
 21
1253.643184378658
 31
0.0
 12
1856.959090889149
 22
1253.823184378658
 32
0.0
 13
1856.959090889149
 23
1253.823184378658
 33
0.0
  0
MTEXT
  5
1B0
330
9D
100
AcDbEntity
  8
0
  6
Continuous
 62
     0
370
     0
100
AcDbMText
 10
1856.959090889149
 20
1037.473259011105
 30
0.0
 40
5.0
 41
0.0
 46
0.0
 71
     5
 72
     1
  1
\A1;432.70mm [17.0354"]
 11
0.0000000000000001
 21
1.0
 31
0.0
 73
     1
 44
1.0
  0
POINT
  5
1B1
330
9D
100
AcDbEntity
  8
Defpoints
  6
Continuous
 62
     0
370
     0
100
AcDbPoint
 10
2085.616006637911
 20
821.1233336435507
 30
0.0
  0
POINT
  5
1B2
330
9D
100
AcDbEntity
  8
Defpoints
  6
Continuous
 62
     0
370
     0
100
AcDbPoint
 10
2085.616006637911
 20
1253.823184378658
 30
0.0
  0
POINT
  5
1B3
330
9D
100
AcDbEntity
  8
Defpoints
  6
Continuous
 62
     0
370
     0
100
AcDbPoint
 10
1856.959090889149
 20
1253.823184378658
 30
0.0
  0
ENDBLK
  5
A9
330
9D
100
AcDbEntity
  8
0
370
     0
100
AcDbBlockEnd
  0
BLOCK
  5
B6
330
AB
100
AcDbEntity
  8
0
370
     0
100
AcDbBlockBegin
  2
*D3
 70
     1
 10
0.0
 20
0.0
 30
0.0
  3
*D3
  1

  0
LINE
  5
1A0
330
AB
100
AcDbEntity
  8
0
  6
Continuous
 62
     0
370
     0
100
AcDbLine
 10
1927.939651807471
 20
1037.108588679648
 30
0.0
 11
1927.939651807471
 21
794.1642641214383
 31
0.0
  0
LINE
  5
1A1
330
AB
100
AcDbEntity
  8
0
  6
Continuous
 62
     0
370
     0
100
AcDbLine
 10
2243.222243455829
 20
1037.108352337637
 30
0.0
 11
2243.222243455829
 21
794.1642641214383
 31
0.0
  0
LINE
  5
1A2
330
AB
100
AcDbEntity
  8
0
  6
Continuous
 62
     0
370
     0
100
AcDbLine
 10
1928.11965180747
 20
794.3442641214383
 30
0.0
 11
2047.157614298316
 21
794.3442641214383
 31
0.0
  0
LINE
  5
1A3
330
AB
100
AcDbEntity
  8
0
  6
Continuous
 62
     0
370
     0
100
AcDbLine
 10
2243.042243455829
 20
794.3442641214383
 30
0.0
 11
2124.004280964983
 21
794.3442641214383
 31
0.0
  0
SOLID
  5
1A4
330
AB
100
AcDbEntity
  8
0
  6
Continuous
 62
     0
370
     0
100
AcDbTrace
 10
1928.11965180747
 20
794.3742641214383
 30
0.0
 11
1928.11965180747
 21
794.3142641214383
 31
0.0
 12
1927.939651807471
 22
794.3442641214383
 32
0.0
 13
1927.939651807471
 23
794.3442641214383
 33
0.0
  0
SOLID
  5
1A5
330
AB
100
AcDbEntity
  8
0
  6
Continuous
 62
     0
370
     0
100
AcDbTrace
 10
2243.042243455829
 20
794.3742641214383
 30
0.0
 11
2243.042243455829
 21
794.3142641214383
 31
0.0
 12
2243.222243455829
 22
794.3442641214383
 32
0.0
 13
2243.222243455829
 23
794.3442641214383
 33
0.0
  0
MTEXT
  5
1A6
330
AB
100
AcDbEntity
  8
0
  6
Continuous
 62
     0
370
     0
100
AcDbMText
 10
2085.58094763165
 20
794.3442641214383
 30
0.0
 40
5.0
 41
0.0
 46
0.0
 71
     5
 72
     1
  1
\A1;315.28mm [12.4127"]
 73
     1
 44
1.0
  0
POINT
  5
1A7
330
AB
100
AcDbEntity
  8
Defpoints
  6
Continuous
 62
     0
370
     0
100
AcDbPoint
 10
1927.939651807471
 20
1037.171088679648
 30
0.0
  0
POINT
  5
1A8
330
AB
100
AcDbEntity
  8
Defpoints
  6
Continuous
 62
     0
370
     0
100
AcDbPoint
 10
2243.222243455829
 20
1037.170852337637
 30
0.0
  0
POINT
  5
1A9
330
AB
100
AcDbEntity
  8
Defpoints
  6
Continuous
 62
     0
370
     0
100
AcDbPoint
 10
2243.222243455829
 20
794.3442641214383
 30
0.0
  0
ENDBLK
  5
B7
330
AB
100
AcDbEntity
  8
0
370
     0
100
AcDbBlockEnd
  0
BLOCK
  5
C4
330
B9
100
AcDbEntity
  8
0
370
     0
100
AcDbBlockBegin
  2
*D4
 70
     1
 10
0.0
 20
0.0
 30
0.0
  3
*D4
  1

  0
LINE
  5
196
330
B9
100
AcDbEntity
  8
0
  6
Continuous
 62
     0
370
     0
100
AcDbLine
 10
1921.589682865086
 20
1037.088728224897
 30
0.0
 11
1921.589682865086
 21
778.0837514195675
 31
0.0
  0
LINE
  5
197
330
B9
100
AcDbEntity
  8
0
  6
Continuous
 62
     0
370
     0
100
AcDbLine
 10
2249.572212645178
 20
1037.088571176937
 30
0.0
 11
2249.572212645178
 21
778.0837514195675
 31
0.0
  0
LINE
  5
198
330
B9
100
AcDbEntity
  8
0
  6
Continuous
 62
     0
370
     0
100
AcDbLine
 10
1921.769682865086
 20
778.2637514195673
 30
0.0
 11
2046.324281088466
 21
778.2637514195673
 31
0.0
  0
LINE
  5
199
330
B9
100
AcDbEntity
  8
0
  6
Continuous
 62
     0
370
     0
100
AcDbLine
 10
2249.392212645178
 20
778.2637514195673
 30
0.0
 11
2124.837614421799
 21
778.2637514195673
 31
0.0
  0
SOLID
  5
19A
330
B9
100
AcDbEntity
  8
0
  6
Continuous
 62
     0
370
     0
100
AcDbTrace
 10
1921.769682865086
 20
778.2937514195674
 30
0.0
 11
1921.769682865086
 21
778.2337514195675
 31
0.0
 12
1921.589682865086
 22
778.2637514195673
 32
0.0
 13
1921.589682865086
 23
778.2637514195673
 33
0.0
  0
SOLID
  5
19B
330
B9
100
AcDbEntity
  8
0
  6
Continuous
 62
     0
370
     0
100
AcDbTrace
 10
2249.392212645178
 20
778.2937514195674
 30
0.0
 11
2249.392212645178
 21
778.2337514195675
 31
0.0
 12
2249.572212645178
 22
778.2637514195673
 32
0.0
 13
2249.572212645178
 23
778.2637514195673
 33
0.0
  0
MTEXT
  5
19C
330
B9
100
AcDbEntity
  8
0
  6
Continuous
 62
     0
370
     0
100
AcDbMText
 10
2085.580947755132
 20
778.2637514195673
 30
0.0
 40
5.0
 41
0.0
 46
0.0
 71
     5
 72
     1
  1
\A1;327.98mm [12.9127"]
 73
     1
 44
1.0
  0
POINT
  5
19D
330
B9
100
AcDbEntity
  8
Defpoints
  6
Continuous
 62
     0
370
     0
100
AcDbPoint
 10
1921.589682865086
 20
1037.151228224896
 30
0.0
  0
POINT
  5
19E
330
B9
100
AcDbEntity
  8
Defpoints
  6
Continuous
 62
     0
370
     0
100
AcDbPoint
 10
2249.572212645178
 20
1037.151071176937
 30
0.0
  0
POINT
  5
19F
330
B9
100
AcDbEntity
  8
Defpoints
  6
Continuous
 62
     0
370
     0
100
AcDbPoint
 10
2249.572212645178
 20
778.2637514195673
 30
0.0
  0
ENDBLK
  5
C5
330
B9
100
AcDbEntity
  8
0
370
     0
100
AcDbBlockEnd
  0
BLOCK
  5
D2
330
C7
100
AcDbEntity
  8
0
370
     0
100
AcDbBlockBegin
  2
*D5
 70
     1
 10
0.0
 20
0.0
 30
0.0
  3
*D5
  1

  0
LINE
  5
18C
330
C7
100
AcDbEntity
  8
0
  6
Continuous
 62
     0
370
     0
100
AcDbLine
 10
1915.239713403915
 20
1037.06903433879
 30
0.0
 11
1915.239713403915
 21
763.4651032113278
 31
0.0
  0
LINE
  5
18D
330
C7
100
AcDbEntity
  8
0
  6
Continuous
 62
     0
370
     0
100
AcDbLine
 10
2255.922181855142
 20
1037.068796634669
 30
0.0
 11
2255.922181855142
 21
763.4651032113278
 31
0.0
  0
LINE
  5
18E
330
C7
100
AcDbEntity
  8
0
  6
Continuous
 62
     0
370
     0
100
AcDbLine
 10
1915.419713403915
 20
763.6451032113278
 30
0.0
 11
2046.740947629529
 21
763.6451032113278
 31
0.0
  0
LINE
  5
18F
330
C7
100
AcDbEntity
  8
0
  6
Continuous
 62
     0
370
     0
100
AcDbLine
 10
2255.742181855142
 20
763.6451032113278
 30
0.0
 11
2124.420947629529
 21
763.6451032113278
 31
0.0
  0
SOLID
  5
190
330
C7
100
AcDbEntity
  8
0
  6
Continuous
 62
     0
370
     0
100
AcDbTrace
 10
1915.419713403915
 20
763.6751032113278
 30
0.0
 11
1915.419713403915
 21
763.6151032113278
 31
0.0
 12
1915.239713403915
 22
763.6451032113278
 32
0.0
 13
1915.239713403915
 23
763.6451032113278
 33
0.0
  0
SOLID
  5
191
330
C7
100
AcDbEntity
  8
0
  6
Continuous
 62
     0
370
     0
100
AcDbTrace
 10
2255.742181855142
 20
763.6751032113278
 30
0.0
 11
2255.742181855142
 21
763.6151032113278
 31
0.0
 12
2255.922181855142
 22
763.6451032113278
 32
0.0
 13
2255.922181855142
 23
763.6451032113278
 33
0.0
  0
MTEXT
  5
192
330
C7
100
AcDbEntity
  8
0
  6
Continuous
 62
     0
370
     0
100
AcDbMText
 10
2085.580947629528
 20
763.6451032113278
 30
0.0
 40
5.0
 41
0.0
 46
0.0
 71
     5
 72
     1
  1
\A1;340.68mm [13.4127"]
 73
     1
 44
1.0
  0
POINT
  5
193
330
C7
100
AcDbEntity
  8
Defpoints
  6
Continuous
 62
     0
370
     0
100
AcDbPoint
 10
1915.239713403915
 20
1037.13153433879
 30
0.0
  0
POINT
  5
194
330
C7
100
AcDbEntity
  8
Defpoints
  6
Continuous
 62
     0
370
     0
100
AcDbPoint
 10
2255.922181855142
 20
1037.131296634669
 30
0.0
  0
POINT
  5
195
330
C7
100
AcDbEntity
  8
Defpoints
  6
Continuous
 62
     0
370
     0
100
AcDbPoint
 10
2255.922181855142
 20
763.6451032113278
 30
0.0
  0
ENDBLK
  5
D3
330
C7
100
AcDbEntity
  8
0
370
     0
100
AcDbBlockEnd
  0
BLOCK
  5
DD
330
D5
100
AcDbEntity
  8
0
370
     0
100
AcDbBlockBegin
  2
*D6
 70
     1
 10
0.0
 20
0.0
 30
0.0
  3
*D6
  1

  0
LINE
  5
185
330
D5
100
AcDbEntity
  8
0
  6
Continuous
 62
     0
370
     0
100
AcDbLine
 10
2287.081849389573
 20
1087.178010909766
 30
0.0
 11
2255.584743240103
 21
1086.418452721089
 31
0.0
  0
MTEXT
  5
186
330
D5
100
AcDbEntity
  8
0
  6
Continuous
 62
     0
370
     0
100
AcDbMText
 10
2337.58851605624
 20
1087.178010909766
 30
0.0
 40
5.0
 41
0.0
 46
0.0
 71
     5
 72
     1
  1
\A1;2-R1810.35mm [R71.2735"]
 73
     1
 44
1.0
  0
SOLID
  5
187
330
D5
100
AcDbEntity
  8
0
  6
Continuous
 62
     0
370
     0
100
AcDbTrace
 10
2255.584019995157
 20
1086.448444001767
 30
0.0
 11
2255.585466485049
 21
1086.38846144041
 31
0.0
 12
2255.404795556031
 22
1086.414113251414
 32
0.0
 13
2255.404795556031
 23
1086.414113251414
 33
0.0
  0
LINE
  5
188
330
D5
100
AcDbEntity
  8
0
  6
Continuous
 62
     0
370
     0
100
AcDbLine
 10
445.4909630000003
 20
1042.769897000003
 30
0.0
 11
445.6709630000003
 21
1042.769897000003
 31
0.0
  0
LINE
  5
189
330
D5
100
AcDbEntity
  8
0
  6
Continuous
 62
     0
370
     0
100
AcDbLine
 10
445.5809630000002
 20
1042.679897000003
 30
0.0
 11
445.5809630000001
 21
1042.859897000003
 31
0.0
  0
POINT
  5
18A
330
D5
100
AcDbEntity
  8
Defpoints
  6
Continuous
 62
     0
370
     0
100
AcDbPoint
 10
2255.404795556031
 20
1086.414113251414
 30
0.0
  0
POINT
  5
18B
330
D5
100
AcDbEntity
  8
Defpoints
  6
Continuous
 62
     0
370
     0
100
AcDbPoint
 10
445.5809630000002
 20
1042.769897000003
 30
0.0
  0
ENDBLK
  5
DE
330
D5
100
AcDbEntity
  8
0
370
     0
100
AcDbBlockEnd
  0
BLOCK
  5
E8
330
E0
100
AcDbEntity
  8
0
370
     0
100
AcDbBlockBegin
  2
*D7
 70
     1
 10
0.0
 20
0.0
 30
0.0
  3
*D7
  1

  0
LINE
  5
17E
330
E0
100
AcDbEntity
  8
0
  6
Continuous
 62
     0
370
     0
100
AcDbLine
 10
2281.213076271558
 20
1073.860632147855
 30
0.0
 11
2249.502232797284
 21
1073.323534638694
 31
0.0
  0
MTEXT
  5
17F
330
E0
100
AcDbEntity
  8
0
  6
Continuous
 62
     0
370
     0
100
AcDbMText
 10
2331.303076271558
 20
1073.860632147855
 30
0.0
 40
5.0
 41
0.0
 46
0.0
 71
     5
 72
     1
  1
\A1;2-R1804.00mm [R71.0235"]
 73
     1
 44
1.0
  0
SOLID
  5
180
330
E0
100
AcDbEntity
  8
0
  6
Continuous
 62
     0
370
     0
100
AcDbTrace
 10
2249.501724749789
 20
1073.353530336515
 30
0.0
 11
2249.502740844778
 21
1073.293538940874
 31
0.0
 12
2249.32225861036
 22
1073.320486353725
 32
0.0
 13
2249.32225861036
 23
1073.320486353725
 33
0.0
  0
LINE
  5
181
330
E0
100
AcDbEntity
  8
0
  6
Continuous
 62
     0
370
     0
100
AcDbLine
 10
445.4909630000003
 20
1042.769896999998
 30
0.0
 11
445.6709630000004
 21
1042.769896999998
 31
0.0
  0
LINE
  5
182
330
E0
100
AcDbEntity
  8
0
  6
Continuous
 62
     0
370
     0
100
AcDbLine
 10
445.5809630000003
 20
1042.679896999998
 30
0.0
 11
445.5809630000002
 21
1042.859896999998
 31
0.0
  0
POINT
  5
183
330
E0
100
AcDbEntity
  8
Defpoints
  6
Continuous
 62
     0
370
     0
100
AcDbPoint
 10
2249.32225861036
 20
1073.320486353725
 30
0.0
  0
POINT
  5
184
330
E0
100
AcDbEntity
  8
Defpoints
  6
Continuous
 62
     0
370
     0
100
AcDbPoint
 10
445.5809630000002
 20
1042.769896999998
 30
0.0
  0
ENDBLK
  5
E9
330
E0
100
AcDbEntity
  8
0
370
     0
100
AcDbBlockEnd
  0
BLOCK
  5
F3
330
EB
100
AcDbEntity
  8
0
370
     0
100
AcDbBlockBegin
  2
*D8
 70
     1
 10
0.0
 20
0.0
 30
0.0
  3
*D8
  1

  0
LINE
  5
177
330
EB
100
AcDbEntity
  8
0
  6
Continuous
 62
     0
370
     0
100
AcDbLine
 10
2278.417342613304
 20
1059.385184316637
 30
0.0
 11
2243.337094347141
 21
1059.067169893438
 31
0.0
  0
MTEXT
  5
178
330
EB
100
AcDbEntity
  8
0
  6
Continuous
 62
     0
370
     0
100
AcDbMText
 10
2330.590675946638
 20
1059.385184316637
 30
0.0
 40
5.0
 41
0.0
 46
0.0
 71
     5
 72
     1
  1
\A1;2-R1797.65mm [R70.7735"]
 73
     1
 44
1.0
  0
SOLID
  5
179
330
EB
100
AcDbEntity
  8
0
  6
Continuous
 62
     0
370
     0
100
AcDbTrace
 10
2243.336822398076
 20
1059.097168660807
 30
0.0
 11
2243.337366296206
 21
1059.037171126068
 31
0.0
 12
2243.157101742922
 22
1059.06553819905
 32
0.0
 13
2243.157101742922
 23
1059.06553819905
 33
0.0
  0
LINE
  5
17A
330
EB
100
AcDbEntity
  8
0
  6
Continuous
 62
     0
370
     0
100
AcDbLine
 10
445.4909629999998
 20
1042.769896999996
 30
0.0
 11
445.6709629999998
 21
1042.769896999997
 31
0.0
  0
LINE
  5
17B
330
EB
100
AcDbEntity
  8
0
  6
Continuous
 62
     0
370
     0
100
AcDbLine
 10
445.580963
 20
1042.679896999996
 30
0.0
 11
445.5809629999998
 21
1042.859896999996
 31
0.0
  0
POINT
  5
17C
330
EB
100
AcDbEntity
  8
Defpoints
  6
Continuous
 62
     0
370
     0
100
AcDbPoint
 10
2243.157101742922
 20
1059.06553819905
 30
0.0
  0
POINT
  5
17D
330
EB
100
AcDbEntity
  8
Defpoints
  6
Continuous
 62
     0
370
     0
100
AcDbPoint
 10
445.5809629999998
 20
1042.769896999996
 30
0.0
  0
ENDBLK
  5
F4
330
EB
100
AcDbEntity
  8
0
370
     0
100
AcDbBlockEnd
  0
BLOCK
  5
FF
330
F6
100
AcDbEntity
  8
0
370
     0
100
AcDbBlockBegin
  2
*D9
 70
     1
 10
0.0
 20
0.0
 30
0.0
  3
*D9
  1

  0
LINE
  5
16F
330
F6
100
AcDbEntity
  8
0
  6
Continuous
 62
     0
370
     0
100
AcDbLine
 10
2220.798109854948
 20
1266.080545689842
 30
0.0
 11
2220.618109854948
 21
1266.080545689842
 31
0.0
  0
LINE
  5
170
330
F6
100
AcDbEntity
  8
0
  6
Continuous
 62
     0
370
     0
100
AcDbLine
 10
2220.618109854948
 20
1266.080545689842
 30
0.0
 11
2204.019008254908
 21
1238.067592085233
 31
0.0
  0
MTEXT
  5
171
330
F6
100
AcDbEntity
  8
0
  6
Continuous
 62
     0
370
     0
100
AcDbMText
 10
2265.888109854948
 20
1266.080545689842
 30
0.0
 40
5.0
 41
0.0
 46
0.0
 71
     5
 72
     1
  1
\A1;4-R98.85mm [R3.8917"]
 73
     1
 44
1.0
  0
SOLID
  5
172
330
F6
100
AcDbEntity
  8
0
  6
Continuous
 62
     0
370
     0
100
AcDbTrace
 10
2203.993199037272
 20
1238.082885361045
 30
0.0
 11
2204.044817472544
 21
1238.052298809423
 31
0.0
 12
2203.927248600042
 22
1237.912736779419
 32
0.0
 13
2203.927248600042
 23
1237.912736779419
 33
0.0
  0
LINE
  5
173
330
F6
100
AcDbEntity
  8
0
  6
Continuous
 62
     0
370
     0
100
AcDbLine
 10
2153.445889
 20
1152.871337999998
 30
0.0
 11
2153.625889
 21
1152.871337999998
 31
0.0
  0
LINE
  5
174
330
F6
100
AcDbEntity
  8
0
  6
Continuous
 62
     0
370
     0
100
AcDbLine
 10
2153.535889
 20
1152.781337999998
 30
0.0
 11
2153.535889
 21
1152.961337999998
 31
0.0
  0
POINT
  5
175
330
F6
100
AcDbEntity
  8
Defpoints
  6
Continuous
 62
     0
370
     0
100
AcDbPoint
 10
2203.927248600042
 20
1237.912736779419
 30
0.0
  0
POINT
  5
176
330
F6
100
AcDbEntity
  8
Defpoints
  6
Continuous
 62
     0
370
     0
100
AcDbPoint
 10
2153.535889
 20
1152.871337999998
 30
0.0
  0
ENDBLK
  5
100
330
F6
100
AcDbEntity
  8
0
370
     0
100
AcDbBlockEnd
  0
BLOCK
  5
10B
330
102
100
AcDbEntity
  8
0
370
     0
100
AcDbBlockBegin
  2
*D10
 70
     1
 10
0.0
 20
0.0
 30
0.0
  3
*D10
  1

  0
LINE
  5
167
330
102
100
AcDbEntity
  8
0
  6
Continuous
 62
     0
370
     0
100
AcDbLine
 10
2228.182207218509
 20
1249.720144465178
 30
0.0
 11
2228.002207218509
 21
1249.720144465178
 31
0.0
  0
LINE
  5
168
330
102
100
AcDbEntity
  8
0
  6
Continuous
 62
     0
370
     0
100
AcDbLine
 10
2228.002207218509
 20
1249.720144465178
 30
0.0
 11
2210.028284393707
 21
1226.343764180452
 31
0.0
  0
MTEXT
  5
169
330
102
100
AcDbEntity
  8
0
  6
Continuous
 62
     0
370
     0
100
AcDbMText
 10
2272.855540551842
 20
1249.720144465178
 30
0.0
 40
5.0
 41
0.0
 46
0.0
 71
     5
 72
     1
  1
\A1;4-R92.50mm [R3.6417"]
 73
     1
 44
1.0
  0
SOLID
  5
16A
330
102
100
AcDbEntity
  8
0
  6
Continuous
 62
     0
370
     0
100
AcDbTrace
 10
2210.004501786368
 20
1226.362050448201
 30
0.0
 11
2210.052067001046
 21
1226.325477912704
 31
0.0
 12
2209.918566787215
 22
1226.20106853642
 32
0.0
 13
2209.918566787215
 23
1226.20106853642
 33
0.0
  0
LINE
  5
16B
330
102
100
AcDbEntity
  8
0
  6
Continuous
 62
     0
370
     0
100
AcDbLine
 10
2153.445889
 20
1152.871338000002
 30
0.0
 11
2153.625889
 21
1152.871338000002
 31
0.0
  0
LINE
  5
16C
330
102
100
AcDbEntity
  8
0
  6
Continuous
 62
     0
370
     0
100
AcDbLine
 10
2153.535889
 20
1152.781338000002
 30
0.0
 11
2153.535889
 21
1152.961338000002
 31
0.0
  0
POINT
  5
16D
330
102
100
AcDbEntity
  8
Defpoints
  6
Continuous
 62
     0
370
     0
100
AcDbPoint
 10
2209.918566787215
 20
1226.20106853642
 30
0.0
  0
POINT
  5
16E
330
102
100
AcDbEntity
  8
Defpoints
  6
Continuous
 62
     0
370
     0
100
AcDbPoint
 10
2153.535889000001
 20
1152.871338000002
 30
0.0
  0
ENDBLK
  5
10C
330
102
100
AcDbEntity
  8
0
370
     0
100
AcDbBlockEnd
  0
BLOCK
  5
117
330
10E
100
AcDbEntity
  8
0
370
     0
100
AcDbBlockBegin
  2
*D11
 70
     1
 10
0.0
 20
0.0
 30
0.0
  3
*D11
  1

  0
LINE
  5
15F
330
10E
100
AcDbEntity
  8
0
  6
Continuous
 62
     0
370
     0
100
AcDbLine
 10
2235.887352970944
 20
1229.510235851051
 30
0.0
 11
2235.707352970944
 21
1229.510235851051
 31
0.0
  0
LINE
  5
160
330
10E
100
AcDbEntity
  8
0
  6
Continuous
 62
     0
370
     0
100
AcDbLine
 10
2235.707352970944
 20
1229.510235851051
 30
0.0
 11
2216.668783573682
 21
1211.753524399703
 31
0.0
  0
MTEXT
  5
161
330
10E
100
AcDbEntity
  8
0
  6
Continuous
 62
     0
370
     0
100
AcDbMText
 10
2280.144019637611
 20
1229.510235851051
 30
0.0
 40
5.0
 41
0.0
 46
0.0
 71
     5
 72
     1
  1
\A1;4-R86.15mm [R3.3917"]
 73
     1
 44
1.0
  0
SOLID
  5
162
330
10E
100
AcDbEntity
  8
0
  6
Continuous
 62
     0
370
     0
100
AcDbTrace
 10
2216.648321799586
 20
1211.77546331036
 30
0.0
 11
2216.689245347777
 21
1211.731585489044
 31
0.0
 12
2216.537150109734
 22
1211.630753755129
 32
0.0
 13
2216.537150109734
 23
1211.630753755129
 33
0.0
  0
LINE
  5
163
330
10E
100
AcDbEntity
  8
0
  6
Continuous
 62
     0
370
     0
100
AcDbLine
 10
2153.445889000002
 20
1152.871338
 30
0.0
 11
2153.625889000002
 21
1152.871338
 31
0.0
  0
LINE
  5
164
330
10E
100
AcDbEntity
  8
0
  6
Continuous
 62
     0
370
     0
100
AcDbLine
 10
2153.535889000001
 20
1152.781338
 30
0.0
 11
2153.535889000002
 21
1152.961338
 31
0.0
  0
POINT
  5
165
330
10E
100
AcDbEntity
  8
Defpoints
  6
Continuous
 62
     0
370
     0
100
AcDbPoint
 10
2216.537150109734
 20
1211.630753755129
 30
0.0
  0
POINT
  5
166
330
10E
100
AcDbEntity
  8
Defpoints
  6
Continuous
 62
     0
370
     0
100
AcDbPoint
 10
2153.535889000001
 20
1152.871338
 30
0.0
  0
ENDBLK
  5
118
330
10E
100
AcDbEntity
  8
0
370
     0
100
AcDbBlockEnd
  0
BLOCK
  5
123
330
11A
100
AcDbEntity
  8
0
370
     0
100
AcDbBlockBegin
  2
*D12
 70
     1
 10
0.0
 20
0.0
 30
0.0
  3
*D12
  1

  0
LINE
  5
157
330
11A
100
AcDbEntity
  8
0
  6
Continuous
 62
     0
370
     0
100
AcDbLine
 10
2135.665583249755
 20
1275.183846629707
 30
0.0
 11
2135.485583249755
 21
1275.183846629707
 31
0.0
  0
LINE
  5
158
330
11A
100
AcDbEntity
  8
0
  6
Continuous
 62
     0
370
     0
100
AcDbLine
 10
2135.485583249755
 20
1275.183846629707
 30
0.0
 11
2134.062107089178
 21
1240.306825903309
 31
0.0
  0
MTEXT
  5
159
330
11A
100
AcDbEntity
  8
0
  6
Continuous
 62
     0
370
     0
100
AcDbMText
 10
2185.755583249755
 20
1275.183846629707
 30
0.0
 40
5.0
 41
0.0
 46
0.0
 71
     5
 72
     1
  1
\A1;2-R1197.65mm [R47.1515"]
 73
     1
 44
1.0
  0
SOLID
  5
15A
330
11A
100
AcDbEntity
  8
0
  6
Continuous
 62
     0
370
     0
100
AcDbTrace
 10
2134.032132044934
 20
1240.308049309437
 30
0.0
 11
2134.092082133423
 21
1240.305602497181
 31
0.0
 12
2134.054766652409
 22
1240.126975637843
 32
0.0
 13
2134.054766652409
 23
1240.126975637843
 33
0.0
  0
LINE
  5
15B
330
11A
100
AcDbEntity
  8
0
  6
Continuous
 62
     0
370
     0
100
AcDbLine
 10
2085.124354999993
 20
43.47325099999996
 30
0.0
 11
2085.304354999994
 21
43.47325099999996
 31
0.0
  0
LINE
  5
15C
330
11A
100
AcDbEntity
  8
0
  6
Continuous
 62
     0
370
     0
100
AcDbLine
 10
2085.214354999994
 20
43.38325099999993
 30
0.0
 11
2085.214354999994
 21
43.56325099999993
 31
0.0
  0
POINT
  5
15D
330
11A
100
AcDbEntity
  8
Defpoints
  6
Continuous
 62
     0
370
     0
100
AcDbPoint
 10
2134.054766652409
 20
1240.126975637843
 30
0.0
  0
POINT
  5
15E
330
11A
100
AcDbEntity
  8
Defpoints
  6
Continuous
 62
     0
370
     0
100
AcDbPoint
 10
2085.214354999994
 20
43.47325099999993
 30
0.0
  0
ENDBLK
  5
124
330
11A
100
AcDbEntity
  8
0
370
     0
100
AcDbBlockEnd
  0
BLOCK
  5
12F
330
126
100
AcDbEntity
  8
0
370
     0
100
AcDbBlockBegin
  2
*D13
 70
     1
 10
0.0
 20
0.0
 30
0.0
  3
*D13
  1

  0
LINE
  5
14F
330
126
100
AcDbEntity
  8
0
  6
Continuous
 62
     0
370
     0
100
AcDbLine
 10
2120.58164533447
 20
1288.011022664581
 30
0.0
 11
2120.401645334469
 21
1288.011022664581
 31
0.0
  0
LINE
  5
150
330
126
100
AcDbEntity
  8
0
  6
Continuous
 62
     0
370
     0
100
AcDbLine
 10
2120.401645334469
 20
1288.011022664581
 30
0.0
 11
2119.246994830486
 21
1247.172238216558
 31
0.0
  0
MTEXT
  5
151
330
126
100
AcDbEntity
  8
0
  6
Continuous
 62
     0
370
     0
100
AcDbMText
 10
2170.67164533447
 20
1288.011022664581
 30
0.0
 40
5.0
 41
0.0
 46
0.0
 71
     5
 72
     1
  1
\A1;2-R1204.00mm [R47.4015"]
 73
     1
 44
1.0
  0
SOLID
  5
152
330
126
100
AcDbEntity
  8
0
  6
Continuous
 62
     0
370
     0
100
AcDbTrace
 10
2119.217006814062
 20
1247.173086079165
 30
0.0
 11
2119.276982846909
 21
1247.17139035395
 31
0.0
 12
2119.241907654839
 22
1246.992310118018
 32
0.0
 13
2119.241907654839
 23
1246.992310118018
 33
0.0
  0
LINE
  5
153
330
126
100
AcDbEntity
  8
0
  6
Continuous
 62
     0
370
     0
100
AcDbLine
 10
2085.124355
 20
43.47325100000015
 30
0.0
 11
2085.304355
 21
43.47325100000015
 31
0.0
  0
LINE
  5
154
330
126
100
AcDbEntity
  8
0
  6
Continuous
 62
     0
370
     0
100
AcDbLine
 10
2085.214355
 20
43.38325100000015
 30
0.0
 11
2085.214355
 21
43.56325100000015
 31
0.0
  0
POINT
  5
155
330
126
100
AcDbEntity
  8
Defpoints
  6
Continuous
 62
     0
370
     0
100
AcDbPoint
 10
2119.241907654839
 20
1246.992310118018
 30
0.0
  0
POINT
  5
156
330
126
100
AcDbEntity
  8
Defpoints
  6
Continuous
 62
     0
370
     0
100
AcDbPoint
 10
2085.214355
 20
43.47325100000015
 30
0.0
  0
ENDBLK
  5
130
330
126
100
AcDbEntity
  8
0
370
     0
100
AcDbBlockEnd
  0
BLOCK
  5
13B
330
132
100
AcDbEntity
  8
0
370
     0
100
AcDbBlockBegin
  2
*D14
 70
     1
 10
0.0
 20
0.0
 30
0.0
  3
*D14
  1

  0
LINE
  5
147
330
132
100
AcDbEntity
  8
0
  6
Continuous
 62
     0
370
     0
100
AcDbLine
 10
2105.506041102684
 20
1303.156493039907
 30
0.0
 11
2105.326041102684
 21
1303.156493039907
 31
0.0
  0
LINE
  5
148
330
132
100
AcDbEntity
  8
0
  6
Continuous
 62
     0
370
     0
100
AcDbLine
 10
2105.326041102684
 20
1303.156493039907
 30
0.0
 11
2104.538813923335
 21
1253.848996868745
 31
0.0
  0
MTEXT
  5
149
330
132
100
AcDbEntity
  8
0
  6
Continuous
 62
     0
370
     0
100
AcDbMText
 10
2156.012707769351
 20
1303.156493039907
 30
0.0
 40
5.0
 41
0.0
 46
0.0
 71
     5
 72
     1
  1
\A1;2-R1210.35mm [R47.6515"]
 73
     1
 44
1.0
  0
SOLID
  5
14A
330
132
100
AcDbEntity
  8
0
  6
Continuous
 62
     0
370
     0
100
AcDbTrace
 10
2104.508817746143
 20
1253.849475777791
 30
0.0
 11
2104.568810100527
 21
1253.848517959698
 31
0.0
 12
2104.535940469058
 22
1253.669019805594
 32
0.0
 13
2104.535940469058
 23
1253.669019805594
 33
0.0
  0
LINE
  5
14B
330
132
100
AcDbEntity
  8
0
  6
Continuous
 62
     0
370
     0
100
AcDbLine
 10
2085.124354999993
 20
43.4732510000001
 30
0.0
 11
2085.304354999994
 21
43.4732510000001
 31
0.0
  0
LINE
  5
14C
330
132
100
AcDbEntity
  8
0
  6
Continuous
 62
     0
370
     0
100
AcDbLine
 10
2085.214354999994
 20
43.38325100000009
 30
0.0
 11
2085.214354999993
 21
43.5632510000001
 31
0.0
  0
POINT
  5
14D
330
132
100
AcDbEntity
  8
Defpoints
  6
Continuous
 62
     0
370
     0
100
AcDbPoint
 10
2104.535940469058
 20
1253.669019805594
 30
0.0
  0
POINT
  5
14E
330
132
100
AcDbEntity
  8
Defpoints
  6
Continuous
 62
     0
370
     0
100
AcDbPoint
 10
2085.214354999994
 20
43.47325100000009
 30
0.0
  0
ENDBLK
  5
13C
330
132
100
AcDbEntity
  8
0
370
     0
100
AcDbBlockEnd
  0
ENDSEC
  0
SECTION
  2
ENTITIES
  0
ARC
  5
2A
330
A
100
AcDbEntity
  8
1
  6
Continuous
100
AcDbCircle
 10
2018.348267
 20
921.9864499999996
 30
0.0
 40
86.1500760000001
100
AcDbArc
 50
184.0468237096861
 51
266.5509886751376
  0
ARC
  5
2C
330
A
100
AcDbEntity
  8
1
  6
Continuous
100
AcDbCircle
 10
2085.214355
 20
2031.473267
 30
0.0
 40
1197.65
100
AcDbArc
 50
266.551086
 51
273.4869406269096
  0
ARC
  5
2D
330
A
100
AcDbEntity
  8
1
  6
Continuous
100
AcDbCircle
 10
2152.816895
 20
922.030945
 30
0.0
 40
86.14998500000002
100
AcDbArc
 50
273.486969
 51
355.9549082629125
  0
ARC
  5
2E
330
A
100
AcDbEntity
  8
1
  6
Continuous
100
AcDbCircle
 10
445.580963
 20
1042.769897
 30
0.0
 40
1797.65
100
AcDbArc
 50
355.954681
 51
363.6884062003505
  0
ARC
  5
2F
330
A
100
AcDbEntity
  8
1
  6
Continuous
100
AcDbCircle
 10
2085.214355
 20
43.47325099999999
 30
0.0
 40
1197.65
100
AcDbArc
 50
86.47592899999997
 51
93.48605029996976
  0
ARC
  5
30
330
A
100
AcDbEntity
  8
1
  6
Continuous
100
AcDbCircle
 10
2152.816895
 20
922.030945
 30
0.0
 40
92.49998500000002
100
AcDbArc
 50
273.486969
 51
355.954681
  0
ARC
  5
31
330
A
100
AcDbEntity
  8
1
  6
Continuous
100
AcDbCircle
 10
2017.629028
 20
1152.916626
 30
0.0
 40
92.49993899999992
100
AcDbArc
 50
93.48606099999996
 51
176.310074
  0
ARC
  5
32
330
A
100
AcDbEntity
  8
1
  6
Continuous
100
AcDbCircle
 10
2085.214355
 20
43.47325099999999
 30
0.0
 40
1204.0
100
AcDbArc
 50
86.47592899999997
 51
93.486053
  0
ARC
  5
33
330
A
100
AcDbEntity
  8
1
  6
Continuous
100
AcDbCircle
 10
3725.581055
 20
1042.769897
 30
0.0
 40
1804.000121999999
100
AcDbArc
 50
176.310074
 51
184.046829
  0
ARC
  5
34
330
A
100
AcDbEntity
  8
1
  6
Continuous
100
AcDbCircle
 10
445.580963
 20
1042.769897
 30
0.0
 40
1804.0
100
AcDbArc
 50
355.954681
 51
363.688406
  0
ARC
  5
35
330
A
100
AcDbEntity
  8
1
  6
Continuous
100
AcDbCircle
 10
2085.214355
 20
2031.473267
 30
0.0
 40
1204.0
100
AcDbArc
 50
266.551086
 51
273.486938
  0
ARC
  5
36
330
A
100
AcDbEntity
  8
1
  6
Continuous
100
AcDbCircle
 10
2018.348267
 20
921.9864499999996
 30
0.0
 40
92.50007600000008
100
AcDbArc
 50
184.0468289999999
 51
266.5510859999999
  0
ARC
  5
37
330
A
100
AcDbEntity
  8
1
  6
Continuous
100
AcDbCircle
 10
445.580963
 20
1042.769897
 30
0.0
 40
1810.35
100
AcDbArc
 50
355.954681
 51
363.6884062199906
  0
ARC
  5
38
330
A
100
AcDbEntity
  8
1
  6
Continuous
100
AcDbCircle
 10
2153.535889
 20
1152.871338
 30
0.0
 40
98.85003100000002
100
AcDbArc
 50
3.688408999999948
 51
86.47593263988147
  0
ARC
  5
39
330
A
100
AcDbEntity
  8
1
  6
Continuous
100
AcDbCircle
 10
2085.214355
 20
43.47325099999999
 30
0.0
 40
1210.35
100
AcDbArc
 50
86.47592899999997
 51
93.4860504122434
  0
ARC
  5
3A
330
A
100
AcDbEntity
  8
1
  6
Continuous
100
AcDbCircle
 10
2017.629028
 20
1152.916626
 30
0.0
 40
98.84993899999992
100
AcDbArc
 50
93.48606099999996
 51
176.310074
  0
ARC
  5
3B
330
A
100
AcDbEntity
  8
1
  6
Continuous
100
AcDbCircle
 10
3725.581055
 20
1042.769897
 30
0.0
 40
1810.350121999999
100
AcDbArc
 50
176.310074
 51
184.0468237096862
  0
ARC
  5
3C
330
A
100
AcDbEntity
  8
1
  6
Continuous
100
AcDbCircle
 10
2017.629028
 20
1152.916626
 30
0.0
 40
86.14993899999992
100
AcDbArc
 50
93.4860609999998
 51
176.310074
  0
ARC
  5
3D
330
A
100
AcDbEntity
  8
1
  6
Continuous
100
AcDbCircle
 10
3725.581055
 20
1042.769897
 30
0.0
 40
1797.650122
100
AcDbArc
 50
176.310074
 51
184.0468237096862
  0
ARC
  5
3E
330
A
100
AcDbEntity
  8
1
  6
Continuous
100
AcDbCircle
 10
2153.535889
 20
1152.871338
 30
0.0
 40
92.50003100000002
100
AcDbArc
 50
3.688408999999948
 51
86.47592900000011
  0
ARC
  5
3F
330
A
100
AcDbEntity
  8
1
  6
Continuous
100
AcDbCircle
 10
2085.214355
 20
2031.473267
 30
0.0
 40
1210.35
100
AcDbArc
 50
266.551086
 51
273.4869409246236
  0
ARC
  5
40
330
A
100
AcDbEntity
  8
1
  6
Continuous
100
AcDbCircle
 10
2152.816895
 20
922.030945
 30
0.0
 40
98.84998500000001
100
AcDbArc
 50
273.486969
 51
355.9548790647288
  0
ARC
  5
41
330
A
100
AcDbEntity
  8
1
  6
Continuous
100
AcDbCircle
 10
2018.348267
 20
921.9864499999996
 30
0.0
 40
98.85007600000008
100
AcDbArc
 50
184.0468237096861
 51
266.5510011791815
  0
ARC
  5
42
330
A
100
AcDbEntity
  8
1
  6
Continuous
100
AcDbCircle
 10
2153.535889
 20
1152.871338
 30
0.0
 40
86.150031
100
AcDbArc
 50
3.688408999999948
 51
86.4759331764621
  0
DIMENSION
  5
80
330
A
100
AcDbEntity
  8
0
  6
Continuous
370
     0
100
AcDbDimension
  2
*D0
 10
1887.617454338369
 20
833.8233329432382
 30
0.0
 11
1887.617454338369
 21
1037.473259010277
 31
0.0
 70
    32
 71
     5
 42
407.2998521340776
 73
     0
 74
     0
 75
     0
  3
Standard
100
AcDbAlignedDimension
 13
2085.611727118354
 23
1241.123185077316
 33
0.0
 14
2085.611789062939
 24
833.8233329432382
 34
0.0
 50
90.0
100
AcDbRotatedDimension
1001
ACAD
1000
DSTYLE
1002
{
1070
     3
1000
mm
1070
     4
1000
"
1070
    73
1070
     0
1070
   140
1040
5.0
1070
   143
1040
0.03937
1070
   170
1070
     1
1070
   171
1070
     4
1070
   271
1070
     2
1070
   272
1070
     2
1070
   274
1070
     4
1070
   278
1070
     0
1070
   289
1070
     3
1070
   371
1070
     0
1070
   372
1070
     0
1002
}
  0
DIMENSION
  5
8E
330
A
100
AcDbEntity
  8
0
  6
Continuous
370
     0
100
AcDbDimension
  2
*D1
 10
1874.252337183587
 20
1247.473184737203
 30
0.0
 11
1874.252337183587
 21
1037.473259010458
 31
0.0
 70
    32
 71
     5
 42
419.9998514534891
 73
     0
 74
     0
 75
     0
  3
Standard
100
AcDbAlignedDimension
 13
2085.613868677524
 23
827.4733332837136
 33
0.0
 14
2085.613805636236
 24
1247.473184737203
 34
0.0
 50
90.0
100
AcDbRotatedDimension
1001
ACAD
1000
DSTYLE
1002
{
1070
     3
1000
mm
1070
     4
1000
"
1070
    73
1070
     0
1070
   140
1040
5.0
1070
   143
1040
0.03937
1070
   170
1070
     1
1070
   171
1070
     4
1070
   271
1070
     2
1070
   272
1070
     2
1070
   274
1070
     4
1070
   278
1070
     0
1070
   289
1070
     3
1070
   371
1070
     0
1070
   372
1070
     0
1002
}
  0
DIMENSION
  5
9C
330
A
100
AcDbEntity
  8
0
  6
Continuous
370
     0
100
AcDbDimension
  2
*D2
 10
1856.959090889149
 20
1253.823184378658
 30
0.0
 11
1856.959090889149
 21
1037.473259011105
 31
0.0
 70
    32
 71
     5
 42
432.6998507351079
 73
     0
 74
     0
 75
     0
  3
Standard
100
AcDbAlignedDimension
 13
2085.616006637911
 23
821.1233336435507
 33
0.0
 14
2085.616006637911
 24
1253.823184378658
 34
0.0
 50
90.0
100
AcDbRotatedDimension
1001
ACAD
1000
DSTYLE
1002
{
1070
     3
1000
mm
1070
     4
1000
"
1070
    73
1070
     0
1070
   140
1040
5.0
1070
   143
1040
0.03937
1070
   170
1070
     1
1070
   171
1070
     4
1070
   271
1070
     2
1070
   272
1070
     2
1070
   274
1070
     4
1070
   278
1070
     0
1070
   289
1070
     3
1070
   371
1070
     0
1070
   372
1070
     0
1002
}
  0
DIMENSION
  5
AA
330
A
100
AcDbEntity
  8
0
  6
Continuous
370
     0
100
AcDbDimension
  2
*D3
 10
2243.222243455829
 20
794.3442641214383
 30
0.0
 11
2085.58094763165
 21
794.3442641214383
 31
0.0
 70
    32
 71
     5
 42
315.2825916483578
 73
     0
 74
     0
 75
     0
  3
Standard
100
AcDbAlignedDimension
 13
1927.939651807471
 23
1037.171088679648
 33
0.0
 14
2243.222243455829
 24
1037.170852337637
 34
0.0
100
AcDbRotatedDimension
1001
ACAD
1000
DSTYLE
1002
{
1070
     3
1000
mm
1070
     4
1000
"
1070
    73
1070
     0
1070
   140
1040
5.0
1070
   143
1040
0.03937
1070
   170
1070
     1
1070
   171
1070
     4
1070
   271
1070
     2
1070
   272
1070
     2
1070
   274
1070
     4
1070
   278
1070
     0
1070
   289
1070
     3
1070
   371
1070
     0
1070
   372
1070
     0
1002
}
  0
DIMENSION
  5
B8
330
A
100
AcDbEntity
  8
0
  6
Continuous
370
     0
100
AcDbDimension
  2
*D4
 10
2249.572212645178
 20
778.2637514195673
 30
0.0
 11
2085.580947755132
 21
778.2637514195673
 31
0.0
 70
    32
 71
     5
 42
327.9825297800917
 73
     0
 74
     0
 75
     0
  3
Standard
100
AcDbAlignedDimension
 13
1921.589682865086
 23
1037.151228224896
 33
0.0
 14
2249.572212645178
 24
1037.151071176937
 34
0.0
100
AcDbRotatedDimension
1001
ACAD
1000
DSTYLE
1002
{
1070
     3
1000
mm
1070
     4
1000
"
1070
    73
1070
     0
1070
   140
1040
5.0
1070
   143
1040
0.03937
1070
   170
1070
     1
1070
   171
1070
     4
1070
   271
1070
     2
1070
   272
1070
     2
1070
   274
1070
     4
1070
   278
1070
     0
1070
   289
1070
     3
1070
   371
1070
     0
1070
   372
1070
     0
1002
}
  0
DIMENSION
  5
C6
330
A
100
AcDbEntity
  8
0
  6
Continuous
370
     0
100
AcDbDimension
  2
*D5
 10
2255.922181855142
 20
763.6451032113278
 30
0.0
 11
2085.580947629528
 21
763.6451032113278
 31
0.0
 70
    32
 71
     5
 42
340.6824684512271
 73
     0
 74
     0
 75
     0
  3
Standard
100
AcDbAlignedDimension
 13
1915.239713403915
 23
1037.13153433879
 33
0.0
 14
2255.922181855142
 24
1037.131296634669
 34
0.0
100
AcDbRotatedDimension
1001
ACAD
1000
DSTYLE
1002
{
1070
     3
1000
mm
1070
     4
1000
"
1070
    73
1070
     0
1070
   140
1040
5.0
1070
   143
1040
0.03937
1070
   170
1070
     1
1070
   171
1070
     4
1070
   271
1070
     2
1070
   272
1070
     2
1070
   274
1070
     4
1070
   278
1070
     0
1070
   289
1070
     3
1070
   371
1070
     0
1070
   372
1070
     0
1002
}
  0
DIMENSION
  5
D4
330
A
100
AcDbEntity
  8
0
  6
Continuous
370
     0
100
AcDbDimension
  2
*D6
 10
445.5809630000002
 20
1042.769897000003
 30
0.0
 11
2287.081849389573
 21
1087.178010909766
 31
0.0
 70
   164
  1
2-<>
 71
     5
 42
1810.35
 73
     0
 74
     0
 75
     0
  3
Standard
100
AcDbRadialDimension
 15
2255.404795556031
 25
1086.414113251414
 35
0.0
 40
0.0
1001
ACAD
1000
DSTYLE
1002
{
1070
     3
1000
mm
1070
     4
1000
"
1070
    73
1070
     0
1070
   140
1040
5.0
1070
   143
1040
0.03937
1070
   170
1070
     1
1070
   171
1070
     4
1070
   271
1070
     2
1070
   272
1070
     2
1070
   274
1070
     4
1070
   278
1070
     0
1070
   288
1070
     1
1070
   289
1070
     3
1070
   371
1070
     0
1070
   372
1070
     0
1002
}
  0
DIMENSION
  5
DF
330
A
100
AcDbEntity
  8
0
  6
Continuous
370
     0
100
AcDbDimension
  2
*D7
 10
445.5809630000002
 20
1042.769896999998
 30
0.0
 11
2281.213076271558
 21
1073.860632147855
 31
0.0
 70
   164
  1
2-<>
 71
     5
 42
1804.0
 73
     0
 74
     0
 75
     0
  3
Standard
100
AcDbRadialDimension
 15
2249.32225861036
 25
1073.320486353725
 35
0.0
 40
0.0
1001
ACAD
1000
DSTYLE
1002
{
1070
     3
1000
mm
1070
     4
1000
"
1070
    73
1070
     0
1070
   140
1040
5.0
1070
   143
1040
0.03937
1070
   170
1070
     1
1070
   171
1070
     4
1070
   271
1070
     2
1070
   272
1070
     2
1070
   274
1070
     4
1070
   278
1070
     0
1070
   288
1070
     1
1070
   289
1070
     3
1070
   371
1070
     0
1070
   372
1070
     0
1002
}
  0
DIMENSION
  5
EA
330
A
100
AcDbEntity
  8
0
  6
Continuous
370
     0
100
AcDbDimension
  2
*D8
 10
445.5809629999998
 20
1042.769896999996
 30
0.0
 11
2278.417342613304
 21
1059.385184316637
 31
0.0
 70
   164
  1
2-<>
 71
     5
 42
1797.65
 73
     0
 74
     0
 75
     0
  3
Standard
100
AcDbRadialDimension
 15
2243.157101742922
 25
1059.06553819905
 35
0.0
 40
0.0
1001
ACAD
1000
DSTYLE
1002
{
1070
     3
1000
mm
1070
     4
1000
"
1070
    73
1070
     0
1070
   140
1040
5.0
1070
   143
1040
0.03937
1070
   170
1070
     1
1070
   171
1070
     4
1070
   271
1070
     2
1070
   272
1070
     2
1070
   274
1070
     4
1070
   278
1070
     0
1070
   288
1070
     1
1070
   289
1070
     3
1070
   371
1070
     0
1070
   372
1070
     0
1002
}
  0
DIMENSION
  5
F5
330
A
100
AcDbEntity
  8
0
  6
Continuous
370
     0
100
AcDbDimension
  2
*D9
 10
2153.535889
 20
1152.871337999998
 30
0.0
 11
2265.888109854948
 21
1266.080545689842
 31
0.0
 70
   164
  1
4-<>
 71
     5
 42
98.85003100000178
 73
     0
 74
     0
 75
     0
  3
Standard
100
AcDbRadialDimension
 15
2203.927248600042
 25
1237.912736779419
 35
0.0
 40
0.0
1001
ACAD
1000
DSTYLE
1002
{
1070
     3
1000
mm
1070
     4
1000
"
1070
    73
1070
     0
1070
   140
1040
5.0
1070
   143
1040
0.03937
1070
   170
1070
     1
1070
   171
1070
     4
1070
   271
1070
     2
1070
   272
1070
     2
1070
   274
1070
     4
1070
   278
1070
     0
1070
   288
1070
     1
1070
   289
1070
     3
1070
   371
1070
     0
1070
   372
1070
     0
1002
}
  0
DIMENSION
  5
101
330
A
100
AcDbEntity
  8
0
  6
Continuous
370
     0
100
AcDbDimension
  2
*D10
 10
2153.535889000001
 20
1152.871338000002
 30
0.0
 11
2272.855540551842
 21
1249.720144465178
 31
0.0
 70
   164
  1
4-<>
 71
     5
 42
92.50003099999776
 73
     0
 74
     0
 75
     0
  3
Standard
100
AcDbRadialDimension
 15
2209.918566787215
 25
1226.20106853642
 35
0.0
 40
0.0
1001
ACAD
1000
DSTYLE
1002
{
1070
     3
1000
mm
1070
     4
1000
"
1070
    73
1070
     0
1070
   140
1040
5.0
1070
   143
1040
0.03937
1070
   170
1070
     1
1070
   171
1070
     4
1070
   271
1070
     2
1070
   272
1070
     2
1070
   274
1070
     4
1070
   278
1070
     0
1070
   288
1070
     1
1070
   289
1070
     3
1070
   371
1070
     0
1070
   372
1070
     0
1002
}
  0
DIMENSION
  5
10D
330
A
100
AcDbEntity
  8
0
  6
Continuous
370
     0
100
AcDbDimension
  2
*D11
 10
2153.535889000001
 20
1152.871338
 30
0.0
 11
2280.144019637611
 21
1229.510235851051
 31
0.0
 70
   164
  1
4-<>
 71
     5
 42
86.15003099999876
 73
     0
 74
     0
 75
     0
  3
Standard
100
AcDbRadialDimension
 15
2216.537150109734
 25
1211.630753755129
 35
0.0
 40
0.0
1001
ACAD
1000
DSTYLE
1002
{
1070
     3
1000
mm
1070
     4
1000
"
1070
    73
1070
     0
1070
   140
1040
5.0
1070
   143
1040
0.03937
1070
   170
1070
     1
1070
   171
1070
     4
1070
   271
1070
     2
1070
   272
1070
     2
1070
   274
1070
     4
1070
   278
1070
     0
1070
   288
1070
     1
1070
   289
1070
     3
1070
   371
1070
     0
1070
   372
1070
     0
1002
}
  0
DIMENSION
  5
119
330
A
100
AcDbEntity
  8
0
  6
Continuous
370
     0
100
AcDbDimension
  2
*D12
 10
2085.214354999994
 20
43.47325099999993
 30
0.0
 11
2185.755583249755
 21
1275.183846629707
 31
0.0
 70
   164
  1
2-<>
 71
     5
 42
1197.65
 73
     0
 74
     0
 75
     0
  3
Standard
100
AcDbRadialDimension
 15
2134.054766652409
 25
1240.126975637843
 35
0.0
 40
0.0
1001
ACAD
1000
DSTYLE
1002
{
1070
     3
1000
mm
1070
     4
1000
"
1070
    73
1070
     0
1070
   140
1040
5.0
1070
   143
1040
0.03937
1070
   170
1070
     1
1070
   171
1070
     4
1070
   271
1070
     2
1070
   272
1070
     2
1070
   274
1070
     4
1070
   278
1070
     0
1070
   288
1070
     1
1070
   289
1070
     3
1070
   371
1070
     0
1070
   372
1070
     0
1002
}
  0
DIMENSION
  5
125
330
A
100
AcDbEntity
  8
0
  6
Continuous
370
     0
100
AcDbDimension
  2
*D13
 10
2085.214355
 20
43.47325100000015
 30
0.0
 11
2170.67164533447
 21
1288.011022664581
 31
0.0
 70
   164
  1
2-<>
 71
     5
 42
1203.999999999999
 73
     0
 74
     0
 75
     0
  3
Standard
100
AcDbRadialDimension
 15
2119.241907654839
 25
1246.992310118018
 35
0.0
 40
0.0
1001
ACAD
1000
DSTYLE
1002
{
1070
     3
1000
mm
1070
     4
1000
"
1070
    73
1070
     0
1070
   140
1040
5.0
1070
   143
1040
0.03937
1070
   170
1070
     1
1070
   171
1070
     4
1070
   271
1070
     2
1070
   272
1070
     2
1070
   274
1070
     4
1070
   278
1070
     0
1070
   288
1070
     1
1070
   289
1070
     3
1070
   371
1070
     0
1070
   372
1070
     0
1002
}
  0
DIMENSION
  5
131
330
A
100
AcDbEntity
  8
0
  6
Continuous
370
     0
100
AcDbDimension
  2
*D14
 10
2085.214354999994
 20
43.47325100000009
 30
0.0
 11
2156.012707769351
 21
1303.156493039907
 31
0.0
 70
   164
  1
2-<>
 71
     5
 42
1210.35
 73
     0
 74
     0
 75
     0
  3
Standard
100
AcDbRadialDimension
 15
2104.535940469058
 25
1253.669019805594
 35
0.0
 40
0.0
1001
ACAD
1000
DSTYLE
1002
{
1070
     3
1000
mm
1070
     4
1000
"
1070
    73
1070
     0
1070
   140
1040
5.0
1070
   143
1040
0.03937
1070
   170
1070
     1
1070
   171
1070
     4
1070
   271
1070
     2
1070
   272
1070
     2
1070
   274
1070
     4
1070
   278
1070
     0
1070
   288
1070
     1
1070
   289
1070
     3
1070
   371
1070
     0
1070
   372
1070
     0
1002
}
  0
MTEXT
  5
1CF
330
A
100
AcDbEntity
  8
0
370
     0
100
AcDbMText
 10
1966.520772063864
 20
1144.439096300983
 30
0.0
 40
15.0
 41
369.9684775640089
 46
17.55883765990302
 71
     1
 72
     5
  1
VU1518A1
 73
     1
 44
1.0
1001
ACAD
1000
ACAD_MTEXT_DEFINED_HEIGHT_BEGIN
1070
    46
1040
17.55883765990302
1000
ACAD_MTEXT_DEFINED_HEIGHT_END
  0
MTEXT
  5
1D0
330
A
100
AcDbEntity
  8
0
370
     0
100
AcDbMText
 10
2277.85562473436
 20
1016.008817994369
 30
0.0
 40
10.0
 41
700.1743051097913
 46
0.0
 71
     1
 72
     5
  3
\A1;Use outside line for reveal mount cut:\PSink rim is {\H0.7x;\S1#4;}" revealed from the countertop opening.\PUse middle line for flushe mount cut:\PSink wall is equal to the edge of countertop opening.\PUse inside line for conceal mount cut:\PSink
  1
 rim is {\H0.7x;\S1#4;}" concealed from the countertop opening.
 73
     1
 44
1.0
1001
ACAD
1000
ACAD_MTEXT_DEFINED_HEIGHT_BEGIN
1070
    46
1040
0.0
1000
ACAD_MTEXT_DEFINED_HEIGHT_END
  0
VIEWPORT
  5
62
330
B
100
AcDbEntity
 67
     1
  8
0
  6
Continuous
370
     0
100
AcDbViewport
 10
5.220833126954206
 20
3.467083570525401
 30
0.0
 40
15.61809481437348
 41
8.746133096049151
 68
     1
 69
     1
 12
5.220833126954206
 22
3.467083570525401
 13
0.0
 23
0.0
 14
10.0
 24
10.0
 15
10.0
 25
10.0
 16
0.0
 26
0.0
 36
1.0
 17
0.0
 27
0.0
 37
0.0
 42
50.0
 43
0.0
 44
0.0
 45
8.746133096049151
 50
0.0
 51
0.0
 72
  1000
 90
    32800
  1

281
     0
 71
     1
 74
     0
110
0.0
120
0.0
130
0.0
111
1.0
121
0.0
131
0.0
112
0.0
122
1.0
132
0.0
 79
     0
146
0.0
170
     0
 61
     5
348
1F2
292
     1
282
     1
141
0.0
142
0.0
 63
   250
421
  3355443
  0
ENDSEC
  0
SECTION
  2
OBJECTS
  0
DICTIONARY
  5
19
330
0
100
AcDbDictionary
281
     1
  3
ACAD_COLOR
350
5D
  3
ACAD_GROUP
350
1A
  3
ACAD_LAYOUT
350
1E
  3
ACAD_MATERIAL
350
5C
  3
ACAD_MLINESTYLE
350
1B
  3
ACAD_PLOTSETTINGS
350
22
  3
ACAD_PLOTSTYLENAME
350
1F
  3
ACAD_TABLESTYLE
350
140
  3
ACAD_VISUALSTYLE
350
1EC
  3
ACAD_WIPEOUT_VARS
350
23
  3
AcDbVariableDictionary
350
1D5
  3
ASE_INDEX_DICTIONARY
350
1D2
  0
DICTIONARY
  5
5D
102
{ACAD_REACTORS
330
19
102
}
330
19
100
AcDbDictionary
281
     1
  0
DICTIONARY
  5
1A
102
{ACAD_REACTORS
330
19
102
}
330
19
100
AcDbDictionary
281
     1
  0
DICTIONARY
  5
1E
102
{ACAD_REACTORS
330
19
102
}
330
19
100
AcDbDictionary
281
     1
  3
Layout1
350
21
  3
Model
350
20
  0
DICTIONARY
  5
5C
102
{ACAD_REACTORS
330
19
102
}
330
19
100
AcDbDictionary
281
     1
  3
ByBlock
350
1EA
  3
ByLayer
350
1E9
  3
Global
350
1EB
  0
DICTIONARY
  5
1B
102
{ACAD_REACTORS
330
19
102
}
330
19
100
AcDbDictionary
281
     1
  3
Standard
350
1C
  0
DICTIONARY
  5
22
102
{ACAD_REACTORS
330
19
102
}
330
19
100
AcDbDictionary
281
     1
  0
ACDBDICTIONARYWDFLT
  5
1F
102
{ACAD_REACTORS
330
19
102
}
330
19
100
AcDbDictionary
281
     1
  3
Normal
350
1D
100
AcDbDictionaryWithDefault
340
1D
  0
DICTIONARY
  5
140
102
{ACAD_REACTORS
330
19
102
}
330
19
100
AcDbDictionary
281
     1
  3
Standard
350
141
  0
DICTIONARY
  5
1EC
102
{ACAD_REACTORS
330
19
102
}
330
19
100
AcDbDictionary
281
     1
  3
2dWireframe
350
1F2
  3
3D Hidden
350
1F4
  3
3dWireframe
350
1F3
  3
Basic
350
1F1
  3
Brighten
350
1F8
  3
ColorChange
350
1FC
  3
Conceptual
350
1F5
  3
Dim
350
1F7
  3
Facepattern
350
1FB
  3
Flat
350
1ED
  3
FlatWithEdges
350
1EE
  3
Gouraud
350
1EF
  3
GouraudWithEdges
350
1F0
  3
Linepattern
350
1FA
  3
Realistic
350
1F6
  3
Thicken
350
1F9
  0
WIPEOUTVARIABLES
  5
23
330
19
100
AcDbWipeoutVariables
 70
     1
  0
DICTIONARY
  5
1D5
102
{ACAD_REACTORS
330
19
102
}
330
19
100
AcDbDictionary
281
     1
  3
CTABLESTYLE
350
1D6
  0
DICTIONARY
  5
1D2
102
{ACAD_REACTORS
330
19
102
}
330
19
100
AcDbDictionary
281
     1
  3
ASEBlockHierarchyIndexRecord
350
1D3
1001
DCO15
1040
1640577944.296
  0
LAYOUT
  5
21
102
{ACAD_REACTORS
330
1E
102
}
330
1E
100
AcDbPlotSettings
  1

  2
HP Deskjet D2300 series
  4
A4
  6

 40
3.174999952316283
 41
4.22274112701416
 42
13.57839965820312
 43
4.138076782226561
 44
296.9683227539062
 45
209.9733276367186
 46
0.0
 47
0.0
 48
0.0
 49
0.0
140
0.0
141
0.0
142
1.0
143
1.0
 70
     0
 72
     0
 73
     0
 74
     0
  7

 75
     0
147
1.0
 76
     0
 77
     2
 78
   300
148
12.7
149
12.7
100
AcDbLayout
  1
Layout1
 70
     0
 71
     1
 10
-0.6249999981226883
 20
-0.6662496506698488
 11
11.0666662520311
 21
7.600416791720652
 12
0.0
 22
0.0
 32
0.0
 14
1.000000000000000E+20
 24
1.000000000000000E+20
 34
1.000000000000000E+20
 15
-1.000000000000000E+20
 25
-1.000000000000000E+20
 35
-1.000000000000000E+20
146
0.0
 13
0.0
 23
0.0
 33
0.0
 16
1.0
 26
0.0
 36
0.0
 17
0.0
 27
1.0
 37
0.0
 76
     0
330
B
331
62
  0
LAYOUT
  5
20
102
{ACAD_REACTORS
330
1E
102
}
330
1E
100
AcDbPlotSettings
  1

  2

  4

  6

 40
0.0
 41
0.0
 42
0.0
 43
0.0
 44
0.0
 45
0.0
 46
0.0
 47
0.0
 48
0.0
 49
0.0
140
0.0
141
0.0
142
1.0
143
1.0
 70
  1024
 72
     0
 73
     0
 74
     0
  7

 75
     0
147
1.0
 76
     0
 77
     2
 78
   300
148
0.0
149
0.0
100
AcDbLayout
  1
Model
 70
     0
 71
     0
 10
0.0
 20
0.0
 11
0.0
 21
0.0
 12
0.0
 22
0.0
 32
0.0
 14
0.0
 24
0.0
 34
0.0
 15
0.0
 25
0.0
 35
0.0
146
0.0
 13
0.0
 23
0.0
 33
0.0
 16
0.0
 26
0.0
 36
0.0
 17
0.0
 27
0.0
 37
0.0
 76
     0
330
A
331
1E4
  0
MATERIAL
  5
1EA
102
{ACAD_REACTORS
330
5C
102
}
330
5C
100
AcDbMaterial
  1
ByBlock
  0
MATERIAL
  5
1E9
102
{ACAD_REACTORS
330
5C
102
}
330
5C
100
AcDbMaterial
  1
ByLayer
  0
MATERIAL
  5
1EB
102
{ACAD_REACTORS
330
5C
102
}
330
5C
100
AcDbMaterial
  1
Global
  0
MLINESTYLE
  5
1C
102
{ACAD_REACTORS
330
1B
102
}
330
1B
100
AcDbMlineStyle
  2
STANDARD
 70
     0
  3

 62
     0
 51
90.0
 52
90.0
 71
     2
 49
0.5
 62
   256
  6
BYLAYER
 49
-0.5
 62
   256
  6
BYLAYER
  0
ACDBPLACEHOLDER
  5
1D
102
{ACAD_REACTORS
330
1F
102
}
330
1F
  0
TABLESTYLE
  5
141
102
{ACAD_REACTORS
330
140
102
}
330
140
100
AcDbTableStyle
  3
Standard
 70
     0
 71
     0
 40
0.06
 41
0.06
280
     0
281
     0
  7
Standard
140
0.18
170
     2
 62
     0
 63
     7
283
     0
 90
        4
 91
        0
  1

274
    -2
284
     1
 64
     0
275
    -2
285
     1
 65
     0
276
    -2
286
     1
 66
     0
277
    -2
287
     1
 67
     0
278
    -2
288
     1
 68
     0
279
    -2
289
     1
 69
     0
  7
Standard
140
0.25
170
     5
 62
     0
 63
     7
283
     0
 90
        4
 91
        0
  1

274
    -2
284
     1
 64
     0
275
    -2
285
     1
 65
     0
276
    -2
286
     1
 66
     0
277
    -2
287
     1
 67
     0
278
    -2
288
     1
 68
     0
279
    -2
289
     1
 69
     0
  7
Standard
140
0.18
170
     5
 62
     0
 63
     7
283
     0
 90
        4
 91
        0
  1

274
    -2
284
     1
 64
     0
275
    -2
285
     1
 65
     0
276
    -2
286
     1
 66
     0
277
    -2
287
     1
 67
     0
278
    -2
288
     1
 68
     0
279
    -2
289
     1
 69
     0
  0
VISUALSTYLE
  5
1F2
102
{ACAD_REACTORS
330
1EC
102
}
330
1EC
100
AcDbVisualStyle
  2
2dWireframe
 70
     4
 71
     0
 72
     2
 73
     0
 90
        0
 40
-0.6
 41
-30.0
 62
     5
 63
     7
421
 16777215
 74
     1
 91
        4
 64
     7
 65
   257
 75
     1
175
     1
 42
1.0
 92
        0
 66
   257
 43
1.0
 76
     1
 77
     6
 78
     2
 67
     7
 79
     5
170
     0
171
     0
290
     0
174
     0
 93
        1
 44
0.0
173
     0
291
     0
 45
0.0
  0
VISUALSTYLE
  5
1F4
102
{ACAD_REACTORS
330
1EC
102
}
330
1EC
100
AcDbVisualStyle
  2
3D Hidden
 70
     6
 71
     1
 72
     2
 73
     2
 90
        0
 40
-0.6
 41
-30.0
 62
     5
 63
     7
421
 16777215
 74
     2
 91
        2
 64
     7
 65
   257
 75
     2
175
     1
 42
40.0
 92
        0
 66
   257
 43
1.0
 76
     1
 77
     6
 78
     2
 67
     7
 79
     3
170
     0
171
     0
290
     0
174
     0
 93
        1
 44
0.0
173
     0
291
     0
 45
0.0
  0
VISUALSTYLE
  5
1F3
102
{ACAD_REACTORS
330
1EC
102
}
330
1EC
100
AcDbVisualStyle
  2
3dWireframe
 70
     5
 71
     0
 72
     2
 73
     0
 90
        0
 40
-0.6
 41
-30.0
 62
     5
 63
     7
421
 16777215
 74
     1
 91
        4
 64
     7
 65
   257
 75
     1
175
     1
 42
1.0
 92
        0
 66
   257
 43
1.0
 76
     1
 77
     6
 78
     2
 67
     7
 79
     5
170
     0
171
     0
290
     0
174
     0
 93
        1
 44
0.0
173
     0
291
     0
 45
0.0
  0
VISUALSTYLE
  5
1F1
102
{ACAD_REACTORS
330
1EC
102
}
330
1EC
100
AcDbVisualStyle
  2
Basic
 70
     7
 71
     1
 72
     0
 73
     1
 90
        0
 40
-0.6
 41
-30.0
 62
     5
 63
     7
421
 16777215
 74
     0
 91
        4
 64
     7
 65
   257
 75
     1
175
     1
 42
1.0
 92
        8
 66
     7
 43
1.0
 76
     1
 77
     6
 78
     2
 67
     7
 79
     5
170
     0
171
     0
290
     0
174
     0
 93
        1
 44
0.0
173
     0
291
     1
 45
0.0
  0
VISUALSTYLE
  5
1F8
102
{ACAD_REACTORS
330
1EC
102
}
330
1EC
100
AcDbVisualStyle
  2
Brighten
 70
    12
 71
     2
 72
     2
 73
     0
 90
        0
 40
-0.6
 41
-30.0
 62
     5
 63
     7
421
 16777215
 74
     1
 91
        4
 64
     7
 65
   257
 75
     1
175
     1
 42
1.0
 92
        8
 66
     7
 43
1.0
 76
     1
 77
     6
 78
     2
 67
     7
 79
     5
170
     0
171
     0
290
     0
174
     0
 93
        1
 44
50.0
173
     0
291
     1
 45
0.0
  0
VISUALSTYLE
  5
1FC
102
{ACAD_REACTORS
330
1EC
102
}
330
1EC
100
AcDbVisualStyle
  2
ColorChange
 70
    16
 71
     2
 72
     2
 73
     3
 90
        0
 40
-0.6
 41
-30.0
 62
     5
 63
     8
421
  8421504
 74
     1
 91
        4
 64
     7
 65
   257
 75
     1
175
     1
 42
1.0
 92
        8
 66
     8
424
  8421504
 43
1.0
 76
     1
 77
     6
 78
     2
 67
     7
 79
     5
170
     0
171
     0
290
     0
174
     0
 93
        1
 44
0.0
173
     0
291
     1
 45
0.0
  0
VISUALSTYLE
  5
1F5
102
{ACAD_REACTORS
330
1EC
102
}
330
1EC
100
AcDbVisualStyle
  2
Conceptual
 70
     9
 71
     3
 72
     2
 73
     0
 90
        0
 40
-0.6
 41
-30.0
 62
     5
 63
     7
421
 16777215
 74
     2
 91
        2
 64
     7
 65
   257
 75
     1
175
     1
 42
40.0
 92
        8
 66
     7
 43
1.0
 76
     1
 77
     6
 78
     2
 67
     7
 79
     3
170
     0
171
     0
290
     0
174
     0
 93
        1
 44
0.0
173
     0
291
     0
 45
0.0
  0
VISUALSTYLE
  5
1F7
102
{ACAD_REACTORS
330
1EC
102
}
330
1EC
100
AcDbVisualStyle
  2
Dim
 70
    11
 71
     2
 72
     2
 73
     0
 90
        0
 40
-0.6
 41
-30.0
 62
     5
 63
     7
421
 16777215
 74
     1
 91
        4
 64
     7
 65
   257
 75
     1
175
     1
 42
1.0
 92
        8
 66
     7
 43
1.0
 76
     1
 77
     6
 78
     2
 67
     7
 79
     5
170
     0
171
     0
290
     0
174
     0
 93
        1
 44
-50.0
173
     0
291
     1
 45
0.0
  0
VISUALSTYLE
  5
1FB
102
{ACAD_REACTORS
330
1EC
102
}
330
1EC
100
AcDbVisualStyle
  2
Facepattern
 70
    15
 71
     2
 72
     2
 73
     0
 90
        0
 40
-0.6
 41
-30.0
 62
     5
 63
     7
421
 16777215
 74
     1
 91
        4
 64
     7
 65
   257
 75
     1
175
     1
 42
1.0
 92
        8
 66
     7
 43
1.0
 76
     1
 77
     6
 78
     2
 67
     7
 79
     5
170
     0
171
     0
290
     0
174
     0
 93
        1
 44
0.0
173
     0
291
     1
 45
0.0
  0
VISUALSTYLE
  5
1ED
102
{ACAD_REACTORS
330
1EC
102
}
330
1EC
100
AcDbVisualStyle
  2
Flat
 70
     0
 71
     2
 72
     1
 73
     1
 90
        2
 40
-0.6
 41
30.0
 62
     5
 63
     7
421
 16777215
 74
     0
 91
        4
 64
     7
 65
   257
 75
     1
175
     1
 42
1.0
 92
        8
 66
     7
 43
1.0
 76
     1
 77
     6
 78
     2
 67
     7
 79
     5
170
     0
171
     0
290
     0
174
     0
 93
       13
 44
0.0
173
     0
291
     1
 45
0.0
  0
VISUALSTYLE
  5
1EE
102
{ACAD_REACTORS
330
1EC
102
}
330
1EC
100
AcDbVisualStyle
  2
FlatWithEdges
 70
     1
 71
     2
 72
     1
 73
     1
 90
        2
 40
-0.6
 41
30.0
 62
     5
 63
     7
421
 16777215
 74
     1
 91
        4
 64
     7
 65
   257
 75
     1
175
     1
 42
1.0
 92
        0
 66
   257
 43
1.0
 76
     1
 77
     6
 78
     2
 67
     7
 79
     5
170
     0
171
     0
290
     0
174
     0
 93
       13
 44
0.0
173
     0
291
     1
 45
0.0
  0
VISUALSTYLE
  5
1EF
102
{ACAD_REACTORS
330
1EC
102
}
330
1EC
100
AcDbVisualStyle
  2
Gouraud
 70
     2
 71
     2
 72
     2
 73
     1
 90
        2
 40
-0.6
 41
30.0
 62
     5
 63
     7
421
 16777215
 74
     0
 91
        4
 64
     7
 65
   257
 75
     1
175
     1
 42
1.0
 92
        0
 66
     7
 43
1.0
 76
     1
 77
     6
 78
     2
 67
     7
 79
     5
170
     0
171
     0
290
     0
174
     0
 93
       13
 44
0.0
173
     0
291
     1
 45
0.0
  0
VISUALSTYLE
  5
1F0
102
{ACAD_REACTORS
330
1EC
102
}
330
1EC
100
AcDbVisualStyle
  2
GouraudWithEdges
 70
     3
 71
     2
 72
     2
 73
     1
 90
        2
 40
-0.6
 41
30.0
 62
     5
 63
     7
421
 16777215
 74
     1
 91
        4
 64
     7
 65
   257
 75
     1
175
     1
 42
1.0
 92
        0
 66
   257
 43
1.0
 76
     1
 77
     6
 78
     2
 67
     7
 79
     5
170
     0
171
     0
290
     0
174
     0
 93
       13
 44
0.0
173
     0
291
     1
 45
0.0
  0
VISUALSTYLE
  5
1FA
102
{ACAD_REACTORS
330
1EC
102
}
330
1EC
100
AcDbVisualStyle
  2
Linepattern
 70
    14
 71
     2
 72
     2
 73
     0
 90
        0
 40
-0.6
 41
-30.0
 62
     5
 63
     7
421
 16777215
 74
     1
 91
        4
 64
     7
 65
   257
 75
     7
175
     7
 42
1.0
 92
        8
 66
     7
 43
1.0
 76
     1
 77
     6
 78
     2
 67
     7
 79
     5
170
     0
171
     0
290
     0
174
     0
 93
        1
 44
0.0
173
     0
291
     1
 45
0.0
  0
VISUALSTYLE
  5
1F6
102
{ACAD_REACTORS
330
1EC
102
}
330
1EC
100
AcDbVisualStyle
  2
Realistic
 70
     8
 71
     2
 72
     2
 73
     0
 90
        0
 40
-0.6
 41
-30.0
 62
     5
 63
     7
421
 16777215
 74
     1
 91
        0
 64
     7
 65
   257
 75
     1
175
     1
 42
1.0
 92
        8
 66
     8
424
  7895160
 43
1.0
 76
     1
 77
     6
 78
     2
 67
     7
 79
     5
170
     0
171
     0
290
     0
174
     0
 93
       13
 44
0.0
173
     0
291
     0
 45
0.0
  0
VISUALSTYLE
  5
1F9
102
{ACAD_REACTORS
330
1EC
102
}
330
1EC
100
AcDbVisualStyle
  2
Thicken
 70
    13
 71
     2
 72
     2
 73
     0
 90
        0
 40
-0.6
 41
-30.0
 62
     5
 63
     7
421
 16777215
 74
     1
 91
        4
 64
     7
 65
   257
 75
     1
175
     1
 42
1.0
 92
       12
 66
     7
 43
1.0
 76
     1
 77
     6
 78
     2
 67
     7
 79
     5
170
     0
171
     0
290
     0
174
     0
 93
        1
 44
0.0
173
     0
291
     1
 45
0.0
  0
DICTIONARYVAR
  5
1D6
102
{ACAD_REACTORS
330
1D5
102
}
330
1D5
100
DictionaryVariables
280
     0
  1
STANDARD
  0
XRECORD
  5
1D3
102
{ACAD_REACTORS
330
1D2
102
}
330
1D2
100
AcDbXrecord
280
     1
  0
ENDSEC
  0
EOF
